Skyscraper (2018)

PG-13 | 1h 42min | Action, Thriller | 13 July 2018 (USA)

A security expert must infiltrate a burning skyscraper, 225 stories above ground, when his family are trapped inside by criminals.

Watch trailer

Media information

General
Format : Matroska
Format version : Version 4
File size : 878 MiB
Duration : 1 h 42 min
Overall bit rate : 1 199 kb/s
Movie name : Skyscraper.2018.720p.10bit.BluRay.6CH.x265.HEVC
Encoded date : UTC 2018-10-02 17:08:50
Writing application : mkvmerge v27.0.0 (‘Metropolis’) 32-bit
Writing library : libebml v1.3.6 + libmatroska v1.4.9

Video
ID : 1
Format : HEVC
Format/Info : High Efficiency Video Coding
Format profile : Main [email protected]@Main
Codec ID : V_MPEGH/ISO/HEVC
Duration : 1 h 42 min
Bit rate : 970 kb/s
Width : 1 280 pixels
Height : 536 pixels
Display aspect ratio : 2.40:1
Frame rate mode : Constant
Frame rate : 23.976 (24000/1001) FPS
Color space : YUV
Chroma subsampling : 4:2:0
Bit depth : 10 bits
Bits/(Pixel*Frame) : 0.059
Stream size : 710 MiB (81%)
Default : Yes
Forced : No

Audio
ID : 2
Format : AAC LC SBR
Commercial name : HE-AAC
Format settings : Explicit
Codec ID : A_AAC-2
Duration : 1 h 42 min
Bit rate : 227 kb/s
Channel(s) : 6 channels
Channel layout : C L R Ls Rs LFE
Sampling rate : 48.0 kHz
Frame rate : 23.438 FPS (2048 SPF)
Compression mode : Lossy
Delay relative to video : 31 ms
Stream size : 166 MiB (19%)
Language : English
Default : Yes
Forced : No

Text #1
ID : 3
Format : UTF-8
Codec ID : S_TEXT/UTF8
Codec ID/Info : UTF-8 Plain Text
Duration : 1 h 32 min
Bit rate : 42 b/s
Count of elements : 1021
Stream size : 29.1 KiB (0%)
Title : ENG
Language : English
Default : Yes
Forced : No

Text #2
ID : 4
Format : UTF-8
Codec ID : S_TEXT/UTF8
Codec ID/Info : UTF-8 Plain Text
Duration : 1 h 42 min
Bit rate : 54 b/s
Count of elements : 1476
Stream size : 40.6 KiB (0%)
Title : ENG SDH
Language : English
Default : No
Forced : No

[collapse]
Download Link(s)

Download

Direct download files get automatically deleted after a month or so. Posted on : 10/02/2018

[collapse]
Magnet Link

Magnet

Source : Skyscraper.2018.1080p.BluRay.REMUX.AVC.DTS-HD.MA.TrueHD.7.1.Atmos-FGT-30.88 GB

[collapse]

Media information

General
Format : Matroska
Format version : Version 4
File size : 796 MiB
Duration : 1 h 42 min
Overall bit rate : 1 087 kb/s
Movie name : Skyscraper.2018.720p.BrRip.2CH.x265.HEVC
Encoded date : UTC 2018-09-27 22:07:05
Writing application : mkvmerge v27.0.0 (‘Metropolis’) 32-bit
Writing library : libebml v1.3.6 + libmatroska v1.4.9

Video
ID : 1
Format : HEVC
Format/Info : High Efficiency Video Coding
Format profile : [email protected]@Main
Codec ID : V_MPEGH/ISO/HEVC
Duration : 1 h 42 min
Bit rate : 1 012 kb/s
Width : 1 280 pixels
Height : 536 pixels
Display aspect ratio : 2.40:1
Frame rate mode : Constant
Frame rate : 23.976 (24000/1001) FPS
Color space : YUV
Chroma subsampling : 4:2:0
Bit depth : 8 bits
Bits/(Pixel*Frame) : 0.062
Stream size : 741 MiB (93%)
Default : Yes
Forced : No

Audio
ID : 2
Format : AAC LC SBR
Commercial name : HE-AAC
Format settings : Explicit
Codec ID : A_AAC-2
Duration : 1 h 42 min
Bit rate : 72.0 kb/s
Channel(s) : 2 channels
Channel layout : L R
Sampling rate : 48.0 kHz
Frame rate : 23.438 FPS (2048 SPF)
Compression mode : Lossy
Delay relative to video : 23 ms
Stream size : 53.5 MiB (7%)
Language : English
Default : Yes
Forced : No

Text #1
ID : 3
Format : UTF-8
Codec ID : S_TEXT/UTF8
Codec ID/Info : UTF-8 Plain Text
Duration : 1 h 32 min
Bit rate : 42 b/s
Count of elements : 1021
Stream size : 29.1 KiB (0%)
Title : ENG
Language : English
Default : Yes
Forced : No

Text #2
ID : 4
Format : UTF-8
Codec ID : S_TEXT/UTF8
Codec ID/Info : UTF-8 Plain Text
Duration : 1 h 42 min
Bit rate : 54 b/s
Count of elements : 1476
Stream size : 40.6 KiB (0%)
Title : ENG SDH
Language : English
Default : No
Forced : No

[collapse]
Download Link(s)

Download

Direct download files get automatically deleted after a month or so. Posted on : 09/28/2018

[collapse]
Magnet Link

Magnet

Source : Skyscraper.2018.1080p.BluRay.x264-SPARKS-7.65 GB

[collapse]

Media information

General
Format : Matroska
Format version : Version 4
File size : 882 MiB
Duration : 1 h 42 min
Overall bit rate : 1 203 kb/s
Movie name : Skyscraper.2018.720p.WEB-DL.2CH.x265.HEVC
Encoded date : UTC 2018-09-25 13:24:41
Writing application : mkvmerge v26.0.0 (‘In The Game’) 32-bit
Writing library : libebml v1.3.6 + libmatroska v1.4.9

Video
ID : 1
Format : HEVC
Format/Info : High Efficiency Video Coding
Format profile : [email protected]@Main
Codec ID : V_MPEGH/ISO/HEVC
Duration : 1 h 42 min
Bit rate : 1 130 kb/s
Width : 1 280 pixels
Height : 528 pixels
Display aspect ratio : 2.40:1
Frame rate mode : Constant
Frame rate : 23.976 (24000/1001) FPS
Color space : YUV
Chroma subsampling : 4:2:0
Bit depth : 8 bits
Bits/(Pixel*Frame) : 0.070
Stream size : 828 MiB (94%)
Default : Yes
Forced : No

Audio
ID : 2
Format : AAC LC SBR
Commercial name : HE-AAC
Format settings : Explicit
Codec ID : A_AAC-2
Duration : 1 h 42 min
Bit rate : 72.0 kb/s
Channel(s) : 2 channels
Channel layout : L R
Sampling rate : 48.0 kHz
Frame rate : 23.438 FPS (2048 SPF)
Compression mode : Lossy
Delay relative to video : 23 ms
Stream size : 52.4 MiB (6%)
Language : English
Default : Yes
Forced : No

Text
ID : 3
Format : UTF-8
Codec ID : S_TEXT/UTF8
Codec ID/Info : UTF-8 Plain Text
Duration : 1 h 32 min
Bit rate : 43 b/s
Count of elements : 1021
Stream size : 29.1 KiB (0%)
Language : English
Default : Yes
Forced : No

[collapse]
Download Link(s)

Download

Direct download files get automatically deleted after a month or so. Posted on : 09/25/2018

[collapse]
Magnet Link

Magnet

Source : Skyscraper.2018.1080p.WEB-DL.DD5.1.H264-FGT-3.57 GB

[collapse]

Media information

General
Format : Matroska
Format version : Version 4
File size : 853 MiB
Duration : 1 h 42 min
Overall bit rate : 1 165 kb/s
Movie name : Skyscraper.2018.720p.WEB-DL.2CH.x264.AVC
Encoded date : UTC 2018-09-06 08:37:39
Writing application : mkvmerge v26.0.0 (‘In The Game’) 32-bit
Writing library : libebml v1.3.6 + libmatroska v1.4.9

Video
ID : 3
Format : AVC
Format/Info : Advanced Video Codec
Format profile : [email protected]
Format settings : CABAC / 5 Ref Frames
Format settings, CABAC : Yes
Format settings, RefFrames : 5 frames
Codec ID : V_MPEG4/ISO/AVC
Duration : 1 h 42 min
Bit rate : 1 099 kb/s
Width : 1 280 pixels
Height : 532 pixels
Display aspect ratio : 2.40:1
Frame rate mode : Constant
Frame rate : 23.976 (24000/1001) FPS
Color space : YUV
Chroma subsampling : 4:2:0
Bit depth : 8 bits
Scan type : Progressive
Bits/(Pixel*Frame) : 0.067
Stream size : 805 MiB (94%)
Default : Yes
Forced : No
Color range : Limited
Color primaries : BT.709
Transfer characteristics : BT.709
Matrix coefficients : BT.709

Audio
ID : 1
Format : AAC LC SBR
Commercial name : HE-AAC
Format settings : Explicit
Codec ID : A_AAC-2
Duration : 1 h 42 min
Bit rate : 64.0 kb/s
Channel(s) : 2 channels
Channel layout : L R
Sampling rate : 48.0 kHz
Frame rate : 23.438 FPS (2048 SPF)
Compression mode : Lossy
Delay relative to video : 31 ms
Stream size : 46.9 MiB (5%)
Language : English
Default : Yes
Forced : No

Text
ID : 2
Format : UTF-8
Codec ID : S_TEXT/UTF8
Codec ID/Info : UTF-8 Plain Text
Duration : 1 h 31 min
Bit rate : 43 b/s
Count of elements : 1019
Stream size : 28.9 KiB (0%)
Language : English
Default : Yes
Forced : No

[collapse]
Download Link(s)

Download

Direct download files get automatically deleted after a month or so. Posted on : 09/06/2018

[collapse]
Magnet Link

Magnet

Source : Skyscraper.2018.1080p.WEBRip.AAC2.0.x264-ALMOSTNICE-3.45 GB

[collapse]

You may also like...

error: nah :p~