Snowden (2016)

R | 2h 14min | Biography, Drama, Thriller | 16 September 2016 (USA)

The NSA’s illegal surveillance techniques are leaked to the public by one of the agency’s employees, Edward Snowden, in the form of thousands of classified documents distributed to the press.

Watch trailer

Media information

General
Format : Matroska
Format version : Version 4
File size : 941 MiB
Duration : 2 h 14 min
Overall bit rate : 976 kb/s
Movie name : Snowden.2016.720p.BrRip.2CH.x265.HEVC
Encoded date : UTC 2018-12-19 22:15:02
Writing application : mkvmerge v29.0.0 (‘Like It Or Not’) 32-bit
Writing library : libebml v1.3.6 + libmatroska v1.4.9

Video
ID : 1
Format : HEVC
Format/Info : High Efficiency Video Coding
Format profile : [email protected]@Main
Codec ID : V_MPEGH/ISO/HEVC
Duration : 2 h 14 min
Bit rate : 904 kb/s
Width : 1 280 pixels
Height : 536 pixels
Display aspect ratio : 2.40:1
Frame rate mode : Constant
Frame rate : 23.976 (24000/1001) FPS
Color space : YUV
Chroma subsampling : 4:2:0
Bit depth : 8 bits
Bits/(Pixel*Frame) : 0.055
Stream size : 872 MiB (93%)
Default : Yes
Forced : No
Color range : Limited
Color primaries : BT.709
Transfer characteristics : BT.709
Matrix coefficients : BT.709

Audio
ID : 2
Format : AAC LC SBR
Commercial name : HE-AAC
Format settings : Explicit
Codec ID : A_AAC-2
Duration : 2 h 14 min
Bit rate : 69.5 kb/s
Channel(s) : 2 channels
Channel layout : L R
Sampling rate : 48.0 kHz
Frame rate : 23.438 FPS (2048 SPF)
Compression mode : Lossy
Delay relative to video : 23 ms
Stream size : 67.1 MiB (7%)
Language : English
Default : Yes
Forced : No

Text
ID : 3
Format : UTF-8
Codec ID : S_TEXT/UTF8
Codec ID/Info : UTF-8 Plain Text
Duration : 2 h 9 min
Bit rate : 75 b/s
Count of elements : 2033
Stream size : 71.8 KiB (0%)
Title : ENG
Language : English
Default : Yes
Forced : No

[collapse]
Download Link(s)

Download

Direct download files get automatically deleted after a month or so. Posted on : 12/20/2018

[collapse]
Magnet Link

Magnet

Snowden.2016.1080p.BluRay.x264-SPARKS-9.84 GB

[collapse]

You may also like...

error: nah :p~