Snowpiercer (2013)

R | 2h 6min | Action, Drama, Sci-Fi | 11 July 2014 (USA)

In a future where a failed climate-change experiment has killed all life except for the lucky few who boarded the Snowpiercer, a train that travels around the globe, a new class system emerges.

Watch trailer

Media information

General
Format : Matroska
Format version : Version 4
File size : 691 MiB
Duration : 2 h 5 min
Overall bit rate : 767 kb/s
Movie name : Snowpiercer.2013.720p.BluRay.2CH.x265.HEVC
Encoded date : UTC 2019-03-31 15:03:05
Writing application : mkvmerge v32.0.0 (‘Astral Progressions’) 32-bit
Writing library : libebml v1.3.7 + libmatroska v1.5.0

Video
ID : 1
Format : HEVC
Format/Info : High Efficiency Video Coding
Format profile : [email protected]@Main
Codec ID : V_MPEGH/ISO/HEVC
Duration : 2 h 5 min
Bit rate : 700 kb/s
Width : 1 280 pixels
Height : 694 pixels
Display aspect ratio : 1.85:1
Frame rate mode : Constant
Frame rate : 23.976 (24000/1001) FPS
Color space : YUV
Chroma subsampling : 4:2:0
Bit depth : 8 bits
Bits/(Pixel*Frame) : 0.033
Stream size : 630 MiB (91%)
Default : Yes
Forced : No
Color range : Limited
Color primaries : BT.709
Transfer characteristics : BT.709
Matrix coefficients : BT.709

Audio
ID : 2
Format : AAC LC
Codec ID : A_AAC-2
Duration : 2 h 5 min
Bit rate : 64.4 kb/s
Channel(s) : 2 channels
Channel layout : L R
Sampling rate : 48.0 kHz
Frame rate : 46.875 FPS (1024 SPF)
Compression mode : Lossy
Delay relative to video : 22 ms
Stream size : 58.0 MiB (8%)
Title : Stereo
Language : English
Default : Yes
Forced : No

Text
ID : 3
Format : ASS
Codec ID : S_TEXT/ASS
Duration : 1 h 56 min
Bit rate : 64 b/s
Count of elements : 1144
Compression mode : Lossless
Stream size : 55.3 KiB (0%)
Language : English
Default : Yes
Forced : Yes

[collapse]
Download Link(s)

Download

Direct download files get automatically deleted after a month or so. Posted on : 03/31/2019

[collapse]
Magnet Link

Magnet

Snowpiercer.2013.1080p.BluRay.X264-AMIABLE-7.70 GB

[collapse]

You may also like...

error: nah :p~