Sobibor (2018)

1h 50min | Drama, History, War | 3 May 2018 (Russia)

“Sobibor” is based on the history of the Sobibór extermination camp uprising during WWII and Soviet officer Alexander Pechersky. When he was a POW in Sobibor, he managed to do the impossible – to organize a revolt and mass escape of the prisoners. Many of the escapees were later caught and died – the rest led by Pechersky managed to join the partisans. Script based on the book by Ilya Vasiliev: “Alexander Pechersky: Breakthrough to Immortality”

Watch trailer

Media information

General
Format : Matroska
Format version : Version 4
File size : 1.02 GiB
Duration : 1 h 57 min
Overall bit rate : 1 253 kb/s
Movie name : Sobibor.2018.720p.BluRay.2CH.x264.AVC
Encoded date : UTC 2018-12-29 12:30:40
Writing application : mkvmerge v29.0.0 (‘Like It Or Not’) 32-bit
Writing library : libebml v1.3.6 + libmatroska v1.4.9

Video
ID : 2
Format : AVC
Format/Info : Advanced Video Codec
Format profile : [email protected]
Format settings : CABAC / 8 Ref Frames
Format settings, CABAC : Yes
Format settings, RefFrames : 8 frames
Codec ID : V_MPEG4/ISO/AVC
Duration : 1 h 57 min
Bit rate : 1 150 kb/s
Width : 1 280 pixels
Height : 538 pixels
Display aspect ratio : 2.40:1
Frame rate mode : Constant
Frame rate : 24.000 FPS
Color space : YUV
Chroma subsampling : 4:2:0
Bit depth : 8 bits
Scan type : Progressive
Bits/(Pixel*Frame) : 0.070
Stream size : 962 MiB (92%)
Default : Yes
Forced : No
Color range : Limited
Color primaries : BT.709
Transfer characteristics : BT.709
Matrix coefficients : BT.709

Audio
ID : 1
Format : AAC LC SBR
Commercial name : HE-AAC
Format settings : Explicit
Codec ID : A_AAC-2
Duration : 1 h 57 min
Bit rate : 100.0 kb/s
Channel(s) : 2 channels
Channel layout : L R
Sampling rate : 48.0 kHz
Frame rate : 23.438 FPS (2048 SPF)
Compression mode : Lossy
Delay relative to video : 31 ms
Stream size : 83.8 MiB (8%)
Language : Russian
Default : Yes
Forced : No

Text
ID : 3
Format : PGS
Muxing mode : zlib
Codec ID : S_HDMV/PGS
Duration : 1 h 45 min
Bit rate : 6 021 b/s
Count of elements : 1678
Stream size : 4.52 MiB (0%)
Language : English
Default : Yes
Forced : No

[collapse]
Download Link(s)

Download

Direct download files get automatically deleted after a month or so. Posted on : 12/29/2018

[collapse]
Magnet Link

Magnet

Sobibor.2018.720p.BluRay.x264-1.3 GB

[collapse]

You may also like...

error: nah :p~