Solo: A Star Wars Story (2018)

PG-13 | 2h 15min | Action, Adventure, Fantasy | 25 May 2018 (USA)

During an adventure into the criminal underworld, Han Solo meets his future co-pilot Chewbacca and encounters Lando Calrissian years before joining the Rebellion.

Watch trailer

Media information

General
Format : Matroska
Format version : Version 4
File size : 2.24 GiB
Duration : 2 h 14 min
Overall bit rate : 2 375 kb/s
Movie name : Solo.A.Star.Wars.Story.2018.1080p.10bit.BluRay.8CH.x265.HEVC
Encoded date : UTC 2018-09-16 12:35:30
Writing application : mkvmerge v26.0.0 (‘In The Game’) 32-bit
Writing library : libebml v1.3.6 + libmatroska v1.4.9

Video
ID : 1
Format : HEVC
Format/Info : High Efficiency Video Coding
Format profile : Main [email protected]@Main
Codec ID : V_MPEGH/ISO/HEVC
Duration : 2 h 14 min
Bit rate : 2 066 kb/s
Width : 1 920 pixels
Height : 808 pixels
Display aspect ratio : 2.40:1
Frame rate mode : Constant
Frame rate : 23.976 (24000/1001) FPS
Color space : YUV
Chroma subsampling : 4:2:0
Bit depth : 10 bits
Bits/(Pixel*Frame) : 0.056
Stream size : 1.95 GiB (87%)
Default : Yes
Forced : No

Audio
ID : 2
Format : AAC LC SBR
Commercial name : HE-AAC
Format settings : Explicit
Codec ID : A_AAC-2
Duration : 2 h 14 min
Bit rate : 307 kb/s
Channel(s) : 7 channels
Channel(s)_Original : 8 channels
Channel layout : C L R Ls Rs Lb Rb LFE
Sampling rate : 48.0 kHz
Frame rate : 23.438 FPS (2048 SPF)
Compression mode : Lossy
Delay relative to video : 31 ms
Stream size : 296 MiB (13%)
Default : Yes
Forced : No

Text
ID : 3
Format : UTF-8
Codec ID : S_TEXT/UTF8
Codec ID/Info : UTF-8 Plain Text
Duration : 2 h 5 min
Bit rate : 56 b/s
Count of elements : 1958
Stream size : 51.9 KiB (0%)
Language : English
Default : Yes
Forced : No

[collapse]
Download Link(s)

Part01 Part02 Part03

Direct download files get automatically deleted after a month or so. Posted on : 09/16/2018

[collapse]
Magnet Link

Magnet

Source : Solo.A.Star.Wars.Story.2018.1080p.BluRay.REMUX.AVC.DTS-HD.MA.7.1-FGT-38.57 GB

[collapse]

Media information

General
Format : Matroska
Format version : Version 4
File size : 901 MiB
Duration : 2 h 14 min
Overall bit rate : 935 kb/s
Movie name : Solo.A.Star.Wars.Story.2018.720p.BluRay.2CH.x265.HEVC
Encoded date : UTC 2018-09-10 08:06:20
Writing application : mkvmerge v26.0.0 (‘In The Game’) 32-bit
Writing library : libebml v1.3.6 + libmatroska v1.4.9

Video
ID : 1
Format : HEVC
Format/Info : High Efficiency Video Coding
Format profile : [email protected]@Main
Codec ID : V_MPEGH/ISO/HEVC
Duration : 2 h 14 min
Bit rate : 869 kb/s
Width : 1 280 pixels
Height : 536 pixels
Display aspect ratio : 2.40:1
Frame rate mode : Constant
Frame rate : 23.976 (24000/1001) FPS
Color space : YUV
Chroma subsampling : 4:2:0
Bit depth : 8 bits
Bits/(Pixel*Frame) : 0.053
Stream size : 838 MiB (93%)
Default : Yes
Forced : No
Color range : Limited
Color primaries : BT.709
Transfer characteristics : BT.709
Matrix coefficients : BT.709

Audio
ID : 2
Format : AAC LC SBR
Commercial name : HE-AAC
Format settings : Explicit
Codec ID : A_AAC-2
Duration : 2 h 14 min
Bit rate : 64.0 kb/s
Channel(s) : 2 channels
Channel layout : L R
Sampling rate : 48.0 kHz
Frame rate : 23.438 FPS (2048 SPF)
Compression mode : Lossy
Delay relative to video : -9 ms
Stream size : 61.7 MiB (7%)
Default : Yes
Forced : No

Text
ID : 3
Format : UTF-8
Codec ID : S_TEXT/UTF8
Codec ID/Info : UTF-8 Plain Text
Duration : 2 h 5 min
Bit rate : 55 b/s
Count of elements : 1926
Stream size : 51.7 KiB (0%)
Language : English
Default : Yes
Forced : No

[collapse]
Download Link(s)

Download

Direct download files get automatically deleted after a month or so. Posted on : 09/10/2018

[collapse]
Magnet Link

Magnet

Source : Solo.A.Star.Wars.Story.2018.720p.BluRay.x264.DTS-HDC-8.17 GB

[collapse]

You may also like...

error: nah :p~