Someone, Somewhere (2019)

Deux moi (original title)|1h 50min | Comedy, Drama, Family | 11 September 2019 (USA)

Rémy, a young Parisian with an unskilled job. Mélanie, a young she-Parisian who works in scientific research. Two depressive moods living in close proximity but strange to each other. Shall the two ever meet?

Watch trailer

Media information

General
Format : Matroska
Format version : Version 4
File size : 1.33 GiB
Duration : 1 h 50 min
Overall bit rate : 1 731 kb/s
Movie name : Someone.Somewhere.2019.1080p.BluRay.2CH.x265.HEVC

Video
ID : 1
Format : HEVC
Format/Info : High Efficiency Video Coding
Format profile : [email protected]@Main
Codec ID : V_MPEGH/ISO/HEVC
Duration : 1 h 50 min
Bit rate : 1 648 kb/s
Width : 1 920 pixels
Height : 1 038 pixels
Display aspect ratio : 1.85:1
Frame rate mode : Constant
Frame rate : 23.976 (24000/1001) FPS
Color space : YUV
Chroma subsampling : 4:2:0
Bit depth : 8 bits
Bits/(Pixel*Frame) : 0.034
Stream size : 1.27 GiB (95%)
Default : Yes
Forced : No
Color range : Limited
Color primaries : BT.709
Transfer characteristics : BT.709
Matrix coefficients : BT.709

Audio
ID : 2
Format : AAC LC
Codec ID : A_AAC-2
Duration : 1 h 50 min
Bit rate : 80.4 kb/s
Channel(s) : 2 channels
Channel layout : L R
Sampling rate : 48.0 kHz
Frame rate : 46.875 FPS (1024 SPF)
Compression mode : Lossy
Delay relative to video : -21 ms
Stream size : 63.4 MiB (5%)
Title : Stereo
Language : French
Default : Yes
Forced : No

Text
ID : 3
Format : ASS
Codec ID : S_TEXT/ASS
Duration : 1 h 47 min
Bit rate : 85 b/s
Count of elements : 1439
Compression mode : Lossless
Stream size : 67.0 KiB (0%)
Language : English
Default : Yes
Forced : Yes

[collapse]
Download Link(s)

Download

Direct download files get automatically deleted after a month or so. Posted on : 02/12/2019

[collapse]
Magnet Link

Magnet

Someone.Somewhere.2019.1080p.BluRay.x264-NODLABS-8.76 GB

[collapse]

Media information

General
Format : Matroska
Format version : Version 4
File size : 588 MiB
Duration : 1 h 50 min
Overall bit rate : 746 kb/s
Movie name : Someone.Somewhere.2019.720p.BluRay.2CH.x265.HEVC

Video
ID : 1
Format : HEVC
Format/Info : High Efficiency Video Coding
Format profile : [email protected]@Main
Codec ID : V_MPEGH/ISO/HEVC
Duration : 1 h 50 min
Bit rate : 663 kb/s
Width : 1 280 pixels
Height : 720 pixels
Display aspect ratio : 1.85:1
Frame rate mode : Constant
Frame rate : 23.976 (24000/1001) FPS
Color space : YUV
Chroma subsampling : 4:2:0
Bit depth : 8 bits
Bits/(Pixel*Frame) : 0.030
Stream size : 523 MiB (89%)
Default : Yes
Forced : No
Color range : Limited
Color primaries : BT.709
Transfer characteristics : BT.709
Matrix coefficients : BT.709

Audio
ID : 2
Format : AAC LC
Codec ID : A_AAC-2
Duration : 1 h 50 min
Bit rate : 80.4 kb/s
Channel(s) : 2 channels
Channel layout : L R
Sampling rate : 48.0 kHz
Frame rate : 46.875 FPS (1024 SPF)
Compression mode : Lossy
Delay relative to video : -21 ms
Stream size : 63.4 MiB (11%)
Title : Stereo
Language : French
Default : Yes
Forced : No

Text
ID : 3
Format : ASS
Codec ID : S_TEXT/ASS
Duration : 1 h 47 min
Bit rate : 85 b/s
Count of elements : 1439
Compression mode : Lossless
Stream size : 67.0 KiB (0%)
Language : English
Default : Yes
Forced : Yes

[collapse]
Download Link(s)

Download

Direct download files get automatically deleted after a month or so. Posted on : 02/12/2019

[collapse]
Magnet Link

Magnet

Someone.Somewhere.2019.1080p.BluRay.x264-NODLABS-8.76 GB

[collapse]

You may also like...

error: nah :p~