Sonu Ke Titu Ki Sweety (2018)

2h 18min | Comedy, Romance | 23 February 2018 (USA)

Titu is going to marry a perfect woman named Sweety. Titu’s best-friend Sonu doubts Sweety’s character and tries to break the marriage while Sweety tries to do opposite and which leads to war between Bromance and Romance.

Watch trailer

Media information

General
Format : Matroska
Format version : Version 4 / Version 2
File size : 1.06 GiB
Duration : 2 h 17 min
Overall bit rate : 1 100 kb/s
Movie name : Sonu.Ke.Titu.Ki.Sweety.2018.720p.WEB-DL.2CH.x264.AVC
Encoded date : UTC 2018-04-27 17:38:40
Writing application : mkvmerge v22.0.0 (‘At The End Of The World’) 32-bit
Writing library : libebml v1.3.5 + libmatroska v1.4.8

Video
ID : 3
Format : AVC
Format/Info : Advanced Video Codec
Format profile : [email protected]
Format settings : CABAC / 8 Ref Frames
Format settings, CABAC : Yes
Format settings, RefFrames : 8 frames
Codec ID : V_MPEG4/ISO/AVC
Duration : 2 h 17 min
Bit rate : 1 034 kb/s
Width : 1 280 pixels
Height : 532 pixels
Display aspect ratio : 2.40:1
Frame rate mode : Constant
Frame rate : 23.976 (23976/1000) FPS
Color space : YUV
Chroma subsampling : 4:2:0
Bit depth : 8 bits
Scan type : Progressive
Bits/(Pixel*Frame) : 0.063
Stream size : 1 019 MiB (94%)
Default : Yes
Forced : No
Color range : Limited
Color primaries : BT.709
Transfer characteristics : BT.709
Matrix coefficients : BT.709

Audio
ID : 2
Format : AAC
Format/Info : Advanced Audio Codec
Format profile : HE-AAC / LC
Format settings : Explicit
Codec ID : A_AAC-2
Duration : 2 h 17 min
Bit rate : 64.0 kb/s
Channel(s) : 2 channels
Channel positions : Front: L R
Sampling rate : 44.1 kHz / 22.05 kHz
Frame rate : 21.533 FPS (1024 SPF)
Compression mode : Lossy
Delay relative to video : 33 ms
Stream size : 63.1 MiB (6%)
Language : Hindi
Default : Yes
Forced : No

Text
ID : 1
Format : UTF-8
Codec ID : S_TEXT/UTF8
Codec ID/Info : UTF-8 Plain Text
Duration : 2 h 14 min
Bit rate : 64 b/s
Count of elements : 2195
Stream size : 64.0 KiB (0%)
Language : English
Default : Yes
Forced : No

[collapse]
Download Link(s)

Download

Direct download files get automatically deleted after a month or so. Posted on : 04/27/2018

[collapse]
Magnet Link

Magnet

Source : Sonu Ke Titu Ki Sweety.2018.1080p.WEB-DL.H264.AAC2.0.ESub – DTOne-8.8 GB

[collapse]

Release Notes

Language: Hindi

Subtitles: English

[collapse]

You may also like...

error: nah :p~