Sorry to Bother You (2018)

R | 1h 51min | Comedy , Fantasy , Sci-Fi | 13 July 2018 (USA)

In an alternate present-day version of Oakland, telemarketer Cassius Green discovers a magical key to professional success, propelling him into a universe of greed.

Watch trailer

Media information

General
Format : Matroska
Format version : Version 4
File size : 717 MiB
Duration : 1 h 51 min
Overall bit rate : 903 kb/s
Movie name : Sorry.to.Bother.You.2018.720p.WEB-DL.2CH.x265.HEVC
Encoded date : UTC 2018-10-09 18:24:01
Writing application : mkvmerge v27.0.0 (‘Metropolis’) 32-bit
Writing library : libebml v1.3.6 + libmatroska v1.4.9

Video
ID : 1
Format : HEVC
Format/Info : High Efficiency Video Coding
Format profile : [email protected]@Main
Codec ID : V_MPEGH/ISO/HEVC
Duration : 1 h 51 min
Bit rate : 839 kb/s
Width : 1 280 pixels
Height : 536 pixels
Display aspect ratio : 2.40:1
Frame rate mode : Constant
Frame rate : 23.976 (24000/1001) FPS
Color space : YUV
Chroma subsampling : 4:2:0
Bit depth : 8 bits
Bits/(Pixel*Frame) : 0.051
Stream size : 666 MiB (93%)
Default : Yes
Forced : No

Audio
ID : 2
Format : AAC LC SBR
Commercial name : HE-AAC
Format settings : Explicit
Codec ID : A_AAC-2
Duration : 1 h 51 min
Bit rate : 62.7 kb/s
Channel(s) : 2 channels
Channel layout : L R
Sampling rate : 48.0 kHz
Frame rate : 23.438 FPS (2048 SPF)
Compression mode : Lossy
Delay relative to video : 23 ms
Stream size : 49.8 MiB (7%)
Language : English
Default : Yes
Forced : No

Text
ID : 3
Format : UTF-8
Codec ID : S_TEXT/UTF8
Codec ID/Info : UTF-8 Plain Text
Duration : 1 h 47 min
Bit rate : 78 b/s
Count of elements : 1876
Stream size : 61.8 KiB (0%)
Language : English
Default : Yes
Forced : No

[collapse]
Download Link(s)

Download

Direct download files get automatically deleted after a month or so. Posted on : 10/09/2018

[collapse]
Magnet Link

Magnet

Source : Sorry.to.Bother.You.2018.1080p.WEB-DL.DD5.1.H264-FGT-3.81 GB

[collapse]

You may also like...

error: nah :p~