Sprinter (2018)

1h 54min | Drama, Sport | 6 September 2019 (UK)

A boy separated from his mother who has moved to the U.S. for a better life, is set to be Jamaica’s next track-and-field sensation.

Watch trailer

Media information

General
Format : Matroska
Format version : Version 4
File size : 975 MiB
Duration : 1 h 51 min
Overall bit rate : 1 219 kb/s
Movie name : Sprinter.2018.720p.WEB-DL.2CH.x264.AVC
Encoded date : UTC 2019-10-27 10:24:56
Writing application : mkvmerge v38.0.0 (‘The Silent Type’) 32-bit
Writing library : libebml v1.3.9 + libmatroska v1.5.2

Video
ID : 1
Format : AVC
Format/Info : Advanced Video Codec
Format profile : [email protected]
Format settings : CABAC / 4 Ref Frames
Format settings, CABAC : Yes
Format settings, Reference frames : 4 frames
Codec ID : V_MPEG4/ISO/AVC
Duration : 1 h 51 min
Bit rate : 1 100 kb/s
Width : 1 280 pixels
Height : 532 pixels
Display aspect ratio : 2.40:1
Frame rate mode : Constant
Frame rate : 23.976 (24000/1001) FPS
Color space : YUV
Chroma subsampling : 4:2:0
Bit depth : 8 bits
Scan type : Progressive
Bits/(Pixel*Frame) : 0.067
Stream size : 871 MiB (89%)
Default : Yes
Forced : No
Color range : Limited
Color primaries : BT.709
Transfer characteristics : BT.709
Matrix coefficients : BT.709

Audio
ID : 2
Format : AAC LC
Codec ID : A_AAC-2
Duration : 1 h 51 min
Bit rate : 128 kb/s
Channel(s) : 2 channels
Channel layout : L R
Sampling rate : 48.0 kHz
Frame rate : 46.875 FPS (1024 SPF)
Compression mode : Lossy
Delay relative to video : -21 ms
Stream size : 102 MiB (10%)
Language : English
Default : Yes
Forced : No

Text
ID : 3
Format : ASS
Codec ID : S_TEXT/ASS
Duration : 1 h 46 min
Bit rate : 34 b/s
Count of elements : 540
Compression mode : Lossless
Stream size : 26.9 KiB (0%)
Language : English
Default : No
Forced : No

[collapse]
Download Link(s)

Download

Direct download files get automatically deleted after a month or so. Posted on : 10/27/2019

[collapse]
Magnet Link

Magnet

Sprinter.2018.1080p.WEB-DL.DD5.1.H264-FGT-3.84 GB

[collapse]

You may also like...

error: nah :p~