Steel Rain 2 (2020)

Not Rated | 2h 12min | Action, Drama, Thriller | 29 July 2020 (South Korea)

A summit of leaders of South Korea, North Korea and the U.S., where they intend to discuss North Korea’s nuclear issue and a peace settlement for the Korean peninsula, but instead end up being abducted.

Watch trailer

Media information

General
Format : Matroska
Format version : Version 4
File size : 868 MiB
Duration : 2 h 11 min
Overall bit rate : 922 kb/s
Movie name : Steel.Rain.2.2020.KOREAN.720p.WEBRip.2CH.x265.HEVC

Video
ID : 1
Format : HEVC
Format/Info : High Efficiency Video Coding
Format profile : [email protected]@Main
Codec ID : V_MPEGH/ISO/HEVC
Duration : 2 h 11 min
Bit rate : 852 kb/s
Width : 1 280 pixels
Height : 536 pixels
Display aspect ratio : 2.40:1
Frame rate mode : Constant
Frame rate : 23.976 (24000/1001) FPS
Color space : YUV
Chroma subsampling : 4:2:0
Bit depth : 8 bits
Bits/(Pixel*Frame) : 0.052
Stream size : 803 MiB (92%)
Default : Yes
Forced : No
Color range : Limited
Color primaries : BT.709
Transfer characteristics : BT.709
Matrix coefficients : BT.709

Audio
ID : 2
Format : AAC LC SBR
Commercial name : HE-AAC
Format settings : Explicit
Codec ID : A_AAC-2
Duration : 2 h 11 min
Bit rate : 66.2 kb/s
Channel(s) : 2 channels
Channel layout : L R
Sampling rate : 48.0 kHz
Frame rate : 23.438 FPS (2048 SPF)
Compression mode : Lossy
Delay relative to video : 23 ms
Stream size : 63.5 MiB (7%)
Language : Korean
Default : Yes
Forced : No

Text
ID : 3
Format : UTF-8
Codec ID : S_TEXT/UTF8
Codec ID/Info : UTF-8 Plain Text
Duration : 2 h 8 min
Bit rate : 60 b/s
Count of elements : 1819
Stream size : 56.8 KiB (0%)
Language : English
Default : Yes
Forced : No

[collapse]
Download Link(s)

Download

Direct download files get automatically deleted after a month or so. Posted on : 08/23/2020

[collapse]
Magnet Link

Magnet

Steel.Rain.2.2020.KOREAN.1080p.AMZN.WEBRip.DDP5.1.x264-NTG- 9.24 GB

[collapse]

You may also like...

error: nah :p~