Stray (2020)

Not Rated | 1h 12min | Documentary | 5 March 2021 (USA)

The world of Zeytin, a stray dog living life on the streets of Istanbul.

Watch trailer

Media information

General
Format : Matroska
Format version : Version 4
File size : 372 MiB
Duration : 1 h 12 min
Overall bit rate : 716 kb/s
Movie name : Stray.2020.TURKISH.720p.10bit.BluRay.2CH.x265.HEVC

Video
ID : 1
Format : HEVC
Format/Info : High Efficiency Video Coding
Format profile : Main [email protected]@Main
Codec ID : V_MPEGH/ISO/HEVC
Duration : 1 h 12 min
Bit rate : 553 kb/s
Width : 1 280 pixels
Height : 692 pixels
Display aspect ratio : 1.85:1
Frame rate mode : Constant
Frame rate : 23.976 (24000/1001) FPS
Color space : YUV
Chroma subsampling : 4:2:0
Bit depth : 10 bits
Bits/(Pixel*Frame) : 0.026
Stream size : 287 MiB (77%)
Default : Yes
Forced : No
Color range : Limited
Color primaries : BT.709
Transfer characteristics : BT.709
Matrix coefficients : BT.709

Audio
ID : 2
Format : AAC LC
Codec ID : A_AAC-2
Duration : 1 h 12 min
Bit rate : 160 kb/s
Channel(s) : 2 channels
Channel layout : L R
Sampling rate : 48.0 kHz
Frame rate : 46.875 FPS (1024 SPF)
Compression mode : Lossy
Delay relative to video : -21 ms
Stream size : 83.2 MiB (22%)
Language : Turkish
Default : Yes
Forced : No

Text
ID : 3
Format : UTF-8
Codec ID : S_TEXT/UTF8
Codec ID/Info : UTF-8 Plain Text
Duration : 1 h 7 min
Bit rate : 18 b/s
Count of elements : 255
Stream size : 9.30 KiB (0%)
Language : English
Default : Yes
Forced : No

[collapse]
Download Link(s)

Download

Direct download files get automatically deleted after a month or so. Posted on : 03/28/2021

[collapse]
Magnet Link

Magnet

Stray.2020.TURKISH.1080p.BluRay.x264.DD5.1-HANDJOB-6.16 GB

[collapse]

You may also like...

error: nah :p~