Styx (2018)

1h 34min | Drama | 13 September 2018 (Germany)

“Styx” depicts the transformation of a strong woman torn from her contented world during a sailing trip.

Watch trailer

Media information

General
Format : Matroska
Format version : Version 4
File size : 800 MiB
Duration : 1 h 34 min
Overall bit rate : 1 182 kb/s
Movie name : Styx.2019.720p.WEB-DL.2CH.x264.AVC
Encoded date : UTC 2019-04-24 15:25:27
Writing application : mkvmerge v33.1.0 (‘Primrose’) 32-bit
Writing library : libebml v1.3.7 + libmatroska v1.5.0

Video
ID : 1
Format : AVC
Format/Info : Advanced Video Codec
Format profile : [email protected]
Format settings : CABAC / 5 Ref Frames
Format settings, CABAC : Yes
Format settings, Reference frames : 5 frames
Codec ID : V_MPEG4/ISO/AVC
Duration : 1 h 34 min
Bit rate : 1 117 kb/s
Width : 1 280 pixels
Height : 690 pixels
Display aspect ratio : 1.85:1
Frame rate mode : Constant
Frame rate : 24.000 FPS
Color space : YUV
Chroma subsampling : 4:2:0
Bit depth : 8 bits
Scan type : Progressive
Bits/(Pixel*Frame) : 0.053
Stream size : 755 MiB (94%)
Default : Yes
Forced : No

Audio
ID : 2
Format : AAC LC SBR
Commercial name : HE-AAC
Format settings : Explicit
Codec ID : A_AAC-2
Duration : 1 h 34 min
Bit rate : 64.0 kb/s
Channel(s) : 2 channels
Channel layout : L R
Sampling rate : 48.0 kHz
Frame rate : 23.438 FPS (2048 SPF)
Compression mode : Lossy
Delay relative to video : 1 ms
Stream size : 43.3 MiB (5%)
Language : English
Default : Yes
Forced : No

Text
ID : 3
Format : UTF-8
Codec ID : S_TEXT/UTF8
Codec ID/Info : UTF-8 Plain Text
Duration : 2 min 6 s
Bit rate : 31 b/s
Count of elements : 20
Stream size : 498 Bytes (0%)
Language : English
Default : Yes
Forced : No

[collapse]
Download Link(s)

Download

Direct download files get automatically deleted after a month or so. Posted on : 04/24/2019

[collapse]
Magnet Link

Magnet

Styx.2018.1080p.WEB-DL.DD5.1.H264-FGT-3.64 GB

[collapse]

You may also like...

error: nah :p~