Sunrise in Heaven (2019)

Not Rated | 1h 25min | Drama, Romance | 9 April 2019 (USA)

A true love story that spans a lifetime but eventually results in a painful loss of love. Jan is the daughter of an overly protective militant father, but that doesn’t stop her from falling love with Steve, a young GI in the Air Force.

Watch trailer

Media information

General
Format : Matroska
Format version : Version 4
File size : 702 MiB
Duration : 1 h 25 min
Overall bit rate : 1 147 kb/s
Movie name : Sunrise.In.Heaven.2019.720p.WEB-DL.2CH.x264.AVC
Encoded date : UTC 2019-04-20 10:50:49
Writing application : mkvmerge v33.1.0 (‘Primrose’) 32-bit
Writing library : libebml v1.3.7 + libmatroska v1.5.0

Video
ID : 1
Format : AVC
Format/Info : Advanced Video Codec
Format profile : [email protected]
Format settings : CABAC / 5 Ref Frames
Format settings, CABAC : Yes
Format settings, RefFrames : 5 frames
Codec ID : V_MPEG4/ISO/AVC
Duration : 1 h 25 min
Bit rate : 1 082 kb/s
Width : 1 280 pixels
Height : 718 pixels
Display aspect ratio : 16:9
Frame rate mode : Constant
Frame rate : 23.976 (24000/1001) FPS
Color space : YUV
Chroma subsampling : 4:2:0
Bit depth : 8 bits
Scan type : Progressive
Bits/(Pixel*Frame) : 0.049
Stream size : 661 MiB (94%)
Default : Yes
Forced : No

Audio
ID : 2
Format : AAC LC SBR
Commercial name : HE-AAC
Format settings : Explicit
Codec ID : A_AAC-2
Duration : 1 h 25 min
Bit rate : 64.0 kb/s
Channel(s) : 2 channels
Channel layout : L R
Sampling rate : 48.0 kHz
Frame rate : 23.438 FPS (2048 SPF)
Compression mode : Lossy
Delay relative to video : 1 ms
Stream size : 39.1 MiB (6%)
Language : English
Default : Yes
Forced : No

Text
ID : 3
Format : UTF-8
Codec ID : S_TEXT/UTF8
Codec ID/Info : UTF-8 Plain Text
Duration : 1 h 23 min
Bit rate : 83 b/s
Count of elements : 1431
Stream size : 50.8 KiB (0%)
Language : English
Default : Yes
Forced : No

[collapse]
Download Link(s)

Download

Direct download files get automatically deleted after a month or so. Posted on : 04/20/2019

[collapse]
Magnet Link

Magnet

Sunrise.In.Heaven.2019.1080p.WEB-DL.DD5.1.H264-FGT-3.34 GB

[collapse]

You may also like...

error: nah :p~