Suspiria (2018)

R | 2h 32min | Fantasy, Horror, Mystery | 2 November 2018 (USA)

A darkness swirls at the center of a world-renowned dance company, one that will engulf the artistic director, an ambitious young dancer, and a grieving psychotherapist. Some will succumb to the nightmare. Others will finally wake up.

Watch trailer

Media information

General
Format : Matroska
Format version : Version 4
File size : 734 MiB
Duration : 2 h 26 min
Overall bit rate : 701 kb/s
Movie name : Suspiria.2018.720p.WEB-DL.2CH.x265.HEVC
Encoded date : UTC 2019-01-13 11:21:33
Writing application : mkvmerge v30.1.0 (‘Forever And More’) 32-bit
Writing library : libebml v1.3.6 + libmatroska v1.4.9

Video
ID : 1
Format : HEVC
Format/Info : High Efficiency Video Coding
Format profile : [email protected]@Main
Codec ID : V_MPEGH/ISO/HEVC
Duration : 2 h 26 min
Bit rate : 628 kb/s
Width : 1 280 pixels
Height : 688 pixels
Display aspect ratio : 1.85:1
Frame rate mode : Constant
Frame rate : 25.000 FPS
Color space : YUV
Chroma subsampling : 4:2:0
Bit depth : 8 bits
Bits/(Pixel*Frame) : 0.029
Stream size : 658 MiB (90%)
Default : Yes
Forced : No

Audio
ID : 2
Format : AAC LC SBR
Commercial name : HE-AAC
Format settings : Explicit
Codec ID : A_AAC-2
Duration : 2 h 26 min
Bit rate : 72.0 kb/s
Channel(s) : 2 channels
Channel layout : L R
Sampling rate : 48.0 kHz
Frame rate : 23.438 FPS (2048 SPF)
Compression mode : Lossy
Delay relative to video : 23 ms
Stream size : 73.9 MiB (10%)
Language : English
Default : Yes
Forced : No

[collapse]
Download Link(s)

Download

No subs are available

Direct download files get automatically deleted after a month or so. Posted on : 01/13/2019

[collapse]
Magnet Link

Magnet

Suspiria.2018.1080p.WEB-DL.DD5.1.H264-FGT-5.49 GB

[collapse]

You may also like...

error: nah :p~