Tapestry (2019)

1h 38min | Drama, Family | 10 January 2019 (USA)

Tapestry is the story of a man (Stephen Baldwin) in the midst of a heavy personal and spiritual crisis. Aided by his Father (Burt Young), and his family, he embarks on a personal journey that will forever change him.

Watch trailer

Media information

General
Format : Matroska
Format version : Version 4
File size : 750 MiB
Duration : 1 h 31 min
Overall bit rate : 1 142 kb/s
Movie name : Tapestry.2019.720p.WEB-DL.2CH.x264.AVC
Encoded date : UTC 2019-06-29 14:18:05
Writing application : mkvmerge v35.0.0 (‘All The Love In The World’) 32-bit
Writing library : libebml v1.3.9 + libmatroska v1.5.2

Video
ID : 1
Format : AVC
Format/Info : Advanced Video Codec
Format profile : [email protected]
Format settings : CABAC / 5 Ref Frames
Format settings, CABAC : Yes
Format settings, Reference frames : 5 frames
Codec ID : V_MPEG4/ISO/AVC
Duration : 1 h 31 min
Bit rate : 1 077 kb/s
Width : 1 280 pixels
Height : 536 pixels
Display aspect ratio : 2.40:1
Frame rate mode : Constant
Frame rate : 23.976 (24000/1001) FPS
Color space : YUV
Chroma subsampling : 4:2:0
Bit depth : 8 bits
Scan type : Progressive
Bits/(Pixel*Frame) : 0.065
Stream size : 707 MiB (94%)
Default : Yes
Forced : No

Audio
ID : 2
Format : AAC LC SBR
Commercial name : HE-AAC
Format settings : Explicit
Codec ID : A_AAC-2
Duration : 1 h 31 min
Bit rate : 64.0 kb/s
Channel(s) : 2 channels
Channel layout : L R
Sampling rate : 48.0 kHz
Frame rate : 23.438 FPS (2048 SPF)
Compression mode : Lossy
Delay relative to video : 43 ms
Stream size : 42.0 MiB (6%)
Language : English
Default : Yes
Forced : No

Text
ID : 3
Format : UTF-8
Codec ID : S_TEXT/UTF8
Codec ID/Info : UTF-8 Plain Text
Duration : 1 h 31 min
Bit rate : 81 b/s
Count of elements : 1647
Stream size : 54.7 KiB (0%)
Language : English
Default : Yes
Forced : No

[collapse]
Download Link(s)

Download

Direct download files get automatically deleted after a month or so. Posted on : 06/29/2019

[collapse]
Magnet Link

Magnet

Tapestry.2019.1080p.WEB-DL.DD2.0.H264-FGT- 3.06 GB

[collapse]

You may also like...

error: nah :p~