Taxi 2 (2000)

Not Rated | 1h 28min | Action, Comedy, Crime | 6 October 2000 (USA)

Police inspector Emilien and his taxi-driver pal Daniel are back, this time on the tail of a group of Japanese yakuza.

Watch trailer

Media information

General
Format : Matroska
Format version : Version 4
File size : 812 MiB
Duration : 1 h 28 min
Overall bit rate : 1 283 kb/s
Movie name : Taxi.2.2000.FRENCH.1080p.BluRay.2CH.x265.HEVC

Video
ID : 1
Format : HEVC
Format/Info : High Efficiency Video Coding
Format profile : [email protected]@Main
Codec ID : V_MPEGH/ISO/HEVC
Duration : 1 h 28 min
Bit rate : 1 200 kb/s
Width : 1 920 pixels
Height : 816 pixels
Display aspect ratio : 2.35:1
Frame rate mode : Constant
Frame rate : 24.000 FPS
Color space : YUV
Chroma subsampling : 4:2:0
Bit depth : 8 bits
Bits/(Pixel*Frame) : 0.032
Stream size : 759 MiB (94%)
Default : Yes
Forced : No
Color range : Limited
Color primaries : BT.709
Transfer characteristics : BT.709
Matrix coefficients : BT.709

Audio
ID : 2
Format : AAC LC
Codec ID : A_AAC-2
Duration : 1 h 28 min
Bit rate : 80.5 kb/s
Channel(s) : 2 channels
Channel layout : L R
Sampling rate : 48.0 kHz
Frame rate : 46.875 FPS (1024 SPF)
Compression mode : Lossy
Delay relative to video : -94 ms
Stream size : 50.8 MiB (6%)
Title : French audio
Language : French
Default : Yes
Forced : No

Text #1
ID : 3
Format : ASS
Codec ID : S_TEXT/ASS
Duration : 1 h 21 min
Bit rate : 97 b/s
Count of elements : 995
Compression mode : Lossless
Stream size : 58.2 KiB (0%)
Language : English
Default : Yes
Forced : Yes

Text #2
ID : 4
Format : ASS
Codec ID : S_TEXT/ASS
Duration : 1 h 21 min
Bit rate : 87 b/s
Count of elements : 851
Compression mode : Lossless
Stream size : 52.7 KiB (0%)
Language : Danish
Default : No
Forced : No

Text #3
ID : 5
Format : ASS
Codec ID : S_TEXT/ASS
Duration : 1 h 21 min
Bit rate : 84 b/s
Count of elements : 848
Compression mode : Lossless
Stream size : 50.4 KiB (0%)
Language : Swedish
Default : No
Forced : No

Text #4
ID : 6
Format : ASS
Codec ID : S_TEXT/ASS
Duration : 1 h 21 min
Bit rate : 78 b/s
Count of elements : 849
Compression mode : Lossless
Stream size : 46.9 KiB (0%)
Language : Norwegian
Default : No
Forced : No

Text #5
ID : 7
Format : ASS
Codec ID : S_TEXT/ASS
Duration : 1 h 21 min
Bit rate : 80 b/s
Count of elements : 851
Compression mode : Lossless
Stream size : 48.2 KiB (0%)
Language : Finnish
Default : No
Forced : No

[collapse]
Download Link(s)

Download

Direct download files get automatically deleted after a month or so. Posted on : 04/04/2020

[collapse]
Magnet Link

Magnet

Taxi.2.2000.FRENCH.1080p.BluRay.x264-FiDELiO- 6.56 GB

[collapse]

Media information

General
Format : Matroska
Format version : Version 4
File size : 622 MiB
Duration : 1 h 28 min
Overall bit rate : 984 kb/s
Movie name : Taxi.2.2000.FRENCH.720p.BluRay.2CH.x265.HEVC

Video
ID : 1
Format : HEVC
Format/Info : High Efficiency Video Coding
Format profile : [email protected]@Main
Codec ID : V_MPEGH/ISO/HEVC
Duration : 1 h 28 min
Bit rate : 901 kb/s
Width : 1 280 pixels
Height : 534 pixels
Display aspect ratio : 2.35:1
Frame rate mode : Constant
Frame rate : 23.976 (24000/1001) FPS
Color space : YUV
Chroma subsampling : 4:2:0
Bit depth : 8 bits
Bits/(Pixel*Frame) : 0.055
Stream size : 570 MiB (92%)
Default : Yes
Forced : No
Color range : Limited
Color primaries : BT.709
Transfer characteristics : BT.709
Matrix coefficients : BT.709

Audio
ID : 2
Format : AAC LC
Codec ID : A_AAC-2
Duration : 1 h 28 min
Bit rate : 80.5 kb/s
Channel(s) : 2 channels
Channel layout : L R
Sampling rate : 48.0 kHz
Frame rate : 46.875 FPS (1024 SPF)
Compression mode : Lossy
Delay relative to video : -94 ms
Stream size : 50.8 MiB (8%)
Title : French audio
Language : French
Default : Yes
Forced : No

Text #1
ID : 3
Format : ASS
Codec ID : S_TEXT/ASS
Duration : 1 h 21 min
Bit rate : 97 b/s
Count of elements : 995
Compression mode : Lossless
Stream size : 58.2 KiB (0%)
Language : English
Default : Yes
Forced : Yes

Text #2
ID : 4
Format : ASS
Codec ID : S_TEXT/ASS
Duration : 1 h 21 min
Bit rate : 87 b/s
Count of elements : 851
Compression mode : Lossless
Stream size : 52.7 KiB (0%)
Language : Danish
Default : No
Forced : No

Text #3
ID : 5
Format : ASS
Codec ID : S_TEXT/ASS
Duration : 1 h 21 min
Bit rate : 84 b/s
Count of elements : 848
Compression mode : Lossless
Stream size : 50.4 KiB (0%)
Language : Swedish
Default : No
Forced : No

Text #4
ID : 6
Format : ASS
Codec ID : S_TEXT/ASS
Duration : 1 h 21 min
Bit rate : 78 b/s
Count of elements : 849
Compression mode : Lossless
Stream size : 46.9 KiB (0%)
Language : Norwegian
Default : No
Forced : No

Text #5
ID : 7
Format : ASS
Codec ID : S_TEXT/ASS
Duration : 1 h 21 min
Bit rate : 80 b/s
Count of elements : 851
Compression mode : Lossless
Stream size : 48.2 KiB (0%)
Language : Finnish
Default : No
Forced : No

[collapse]
Download Link(s)

Download

Direct download files get automatically deleted after a month or so. Posted on : 04/04/2020

[collapse]
Magnet Link

Magnet

Taxi.2.2000.FRENCH.1080p.BluRay.x264-FiDELiO- 6.56 GB

[collapse]

You may also like...

error: nah :p~