Taxi 5 (2018)

1h 42min | Action, Adventure, Comedy | 11 April 2018 (France)

A police officer who’s transfered in the police of Marseille gets assigned to take down a group of Italian robbers who drive the powerfull Ferrari’s with the older niece of Daniel, a terrible driver who gets the legendary white taxi.

Watch trailer

Media information

General
Format : Matroska
Format version : Version 4 / Version 2
File size : 951 MiB
Duration : 1 h 41 min
Overall bit rate : 1 305 kb/s
Movie name : Taxi.5.2018.720p.BluRay.2CH.x264.AVC
Encoded date : UTC 2018-08-05 12:05:03
Writing application : mkvmerge v25.0.0 (‘Prog Noir’) 32-bit
Writing library : libebml v1.3.6 + libmatroska v1.4.9

Video
ID : 2
Format : AVC
Format/Info : Advanced Video Codec
Format profile : [email protected]
Format settings : CABAC / 9 Ref Frames
Format settings, CABAC : Yes
Format settings, RefFrames : 9 frames
Codec ID : V_MPEG4/ISO/AVC
Duration : 1 h 41 min
Bit rate : 1 206 kb/s
Width : 1 280 pixels
Height : 536 pixels
Display aspect ratio : 2.40:1
Frame rate mode : Constant
Frame rate : 24.000 FPS
Color space : YUV
Chroma subsampling : 4:2:0
Bit depth : 8 bits
Scan type : Progressive
Bits/(Pixel*Frame) : 0.073
Stream size : 877 MiB (92%)
Default : Yes
Forced : No

Audio
ID : 1
Format : AAC
Format/Info : Advanced Audio Codec
Format profile : HE-AAC / LC
Format settings : Explicit
Codec ID : A_AAC-2
Duration : 1 h 41 min
Bit rate : 100.0 kb/s
Channel(s) : 2 channels
Channel positions : Front: L R
Sampling rate : 48.0 kHz / 24.0 kHz
Frame rate : 23.438 FPS (1024 SPF)
Compression mode : Lossy
Delay relative to video : 31 ms
Stream size : 72.9 MiB (8%)
Language : French
Default : Yes
Forced : No

Text
ID : 3
Format : UTF-8
Codec ID : S_TEXT/UTF8
Codec ID/Info : UTF-8 Plain Text
Duration : 1 h 40 min
Bit rate : 56 b/s
Count of elements : 1743
Stream size : 41.9 KiB (0%)
Default : Yes
Forced : No

[collapse]
Download Link(s)

Download

Direct download files get automatically deleted after a month or so. Posted on : 08/05/2018

[collapse]
Magnet Link

Magnet

Source : Taxi 5 2018 FRENCH 720p BluRay DTS x264-UTT-4.4 GB

[collapse]

You may also like...

error: nah :p~