Taxi Driver (1976)

R | 1h 54min | Crime , Drama | 8 February 1976 (USA)

A mentally unstable veteran works as a nighttime taxi driver in New York City, where the perceived decadence and sleaze fuels his urge for violent action by attempting to liberate a presidential campaign worker and an underage prostitute.

Watch trailer

Media information

General
Format : Matroska
Format version : Version 4
File size : 539 MiB
Duration : 1 h 53 min
Overall bit rate mode : Variable
Overall bit rate : 662 kb/s
Movie name : Taxi.Driver.1976.ReMastered.720p.10bit.BluRay.2CH.x265.HEVC
Encoded date : UTC 2018-10-10 20:33:04
Writing application : mkvmerge v27.0.0 (‘Metropolis’) 32-bit
Writing library : libebml v1.3.6 + libmatroska v1.4.9

Video
ID : 1
Format : HEVC
Format/Info : High Efficiency Video Coding
Format profile : Main [email protected]@Main
Codec ID : V_MPEGH/ISO/HEVC
Duration : 1 h 53 min
Bit rate : 598 kb/s
Width : 1 280 pixels
Height : 696 pixels
Display aspect ratio : 1.85:1
Frame rate mode : Constant
Frame rate : 23.976 (24000/1001) FPS
Color space : YUV
Chroma subsampling : 4:2:0
Bit depth : 10 bits
Bits/(Pixel*Frame) : 0.028
Stream size : 486 MiB (90%)
Default : Yes
Forced : No

Audio
ID : 2
Format : Vorbis
Format settings, Floor : 1
Codec ID : A_VORBIS
Duration : 1 h 53 min
Bit rate mode : Variable
Bit rate : 73.6 kb/s
Channel(s) : 2 channels
Sampling rate : 48.0 kHz
Frame rate : 50.549 FPS (950 SPF)
Compression mode : Lossy
Stream size : 50.5 MiB (9%)
Writing library : aoTuV 20110424 (UTC 2011-04-24)
Language : English
Default : Yes
Forced : No

Text
ID : 3
Format : UTF-8
Codec ID : S_TEXT/UTF8
Codec ID/Info : UTF-8 Plain Text
Duration : 1 h 48 min
Bit rate : 54 b/s
Count of elements : 1220
Stream size : 43.5 KiB (0%)
Language : English
Default : Yes
Forced : No

[collapse]
Download Link(s)

Download

Direct download files get automatically deleted after a month or so. Posted on : 10/11/2018

[collapse]
Magnet Link

Magnet

Taxi.Driver.1976.Mastered.in.4K.1080p.BluRay.AVC.DTS-HD.MA.5.1-FGT-45.86 GB

[collapse]

You may also like...

error: nah :p~