Taylor Swift: Reputation Stadium Tour (2018)

2h 5min | Music | TV Movie 31 December 2018

Taylor Swift takes the stage and proves she doesn’t care about her bad reputation.

Watch trailer

Media information

General
Format : Matroska
Format version : Version 4
File size : 1.30 GiB
Duration : 2 h 5 min
Overall bit rate : 1 483 kb/s
Movie name : Taylor.Swift.Reputation.Stadium.Tour.2018.720p.WEBRip.DDP5.1.Atmos.x265.HEVC
Encoded date : UTC 2019-01-03 12:38:55
Writing application : mkvmerge v29.0.0 (‘Like It Or Not’) 32-bit
Writing library : libebml v1.3.6 + libmatroska v1.4.9

Video
ID : 1
Format : HEVC
Format/Info : High Efficiency Video Coding
Format profile : [email protected]@Main
Codec ID : V_MPEGH/ISO/HEVC
Duration : 2 h 5 min
Bit rate : 1 032 kb/s
Width : 1 280 pixels
Height : 536 pixels
Display aspect ratio : 2.40:1
Frame rate mode : Constant
Frame rate : 23.976 (24000/1001) FPS
Color space : YUV
Chroma subsampling : 4:2:0
Bit depth : 8 bits
Bits/(Pixel*Frame) : 0.063
Stream size : 927 MiB (70%)
Default : Yes
Forced : No

Audio
ID : 2
Format : E-AC-3 JOC
Commercial name : Dolby Digital Plus with Dolby Atmos
Codec ID : A_EAC3
Duration : 2 h 5 min
Bit rate mode : Constant
Bit rate : 448 kb/s
Channel(s) : 6 channels
Channel layout : L R C LFE Ls Rs
Sampling rate : 48.0 kHz
Frame rate : 31.250 FPS (1536 SPF)
Compression mode : Lossy
Stream size : 402 MiB (30%)
Language : English
Service kind : Complete Main
Default : Yes
Forced : No
Complexity index : 16
Number of dynamic objects : 15
Bed channel count : 1 channel
Bed channel configuration : LFE

Text #1
ID : 3
Format : UTF-8
Codec ID : S_TEXT/UTF8
Codec ID/Info : UTF-8 Plain Text
Duration : 2 h 5 min
Bit rate : 90 b/s
Count of elements : 2079
Stream size : 82.8 KiB (0%)
Language : English
Default : Yes
Forced : No

Text #2
ID : 4
Format : UTF-8
Codec ID : S_TEXT/UTF8
Codec ID/Info : UTF-8 Plain Text
Duration : 2 h 4 min
Bit rate : 14 b/s
Count of elements : 437
Stream size : 13.0 KiB (0%)
Title : Brazilian
Language : Portuguese
Default : No
Forced : No

Text #3
ID : 5
Format : UTF-8
Codec ID : S_TEXT/UTF8
Codec ID/Info : UTF-8 Plain Text
Duration : 2 h 4 min
Bit rate : 15 b/s
Count of elements : 424
Stream size : 13.9 KiB (0%)
Language : Danish
Default : No
Forced : No

Text #4
ID : 6
Format : UTF-8
Codec ID : S_TEXT/UTF8
Codec ID/Info : UTF-8 Plain Text
Duration : 2 h 4 min
Bit rate : 14 b/s
Count of elements : 397
Stream size : 13.0 KiB (0%)
Language : Dutch
Default : No
Forced : No

Text #5
ID : 7
Format : UTF-8
Codec ID : S_TEXT/UTF8
Codec ID/Info : UTF-8 Plain Text
Duration : 2 h 4 min
Bit rate : 15 b/s
Count of elements : 471
Stream size : 14.5 KiB (0%)
Title : European
Language : Spanish
Default : No
Forced : No

Text #6
ID : 8
Format : UTF-8
Codec ID : S_TEXT/UTF8
Codec ID/Info : UTF-8 Plain Text
Duration : 2 h 4 min
Bit rate : 14 b/s
Count of elements : 320
Stream size : 13.4 KiB (0%)
Language : Finnish
Default : No
Forced : No

Text #7
ID : 9
Format : UTF-8
Codec ID : S_TEXT/UTF8
Codec ID/Info : UTF-8 Plain Text
Duration : 2 h 4 min
Bit rate : 16 b/s
Count of elements : 469
Stream size : 15.2 KiB (0%)
Language : French
Default : No
Forced : No

Text #8
ID : 10
Format : UTF-8
Codec ID : S_TEXT/UTF8
Codec ID/Info : UTF-8 Plain Text
Duration : 2 h 4 min
Bit rate : 17 b/s
Count of elements : 406
Stream size : 16.0 KiB (0%)
Language : German
Default : No
Forced : No

Text #9
ID : 11
Format : UTF-8
Codec ID : S_TEXT/UTF8
Codec ID/Info : UTF-8 Plain Text
Duration : 2 h 4 min
Bit rate : 28 b/s
Count of elements : 433
Stream size : 26.5 KiB (0%)
Language : Greek
Default : No
Forced : No

Text #10
ID : 12
Format : UTF-8
Codec ID : S_TEXT/UTF8
Codec ID/Info : UTF-8 Plain Text
Duration : 2 h 4 min
Bit rate : 16 b/s
Count of elements : 418
Stream size : 14.8 KiB (0%)
Language : Indonesian
Default : No
Forced : No

Text #11
ID : 13
Format : UTF-8
Codec ID : S_TEXT/UTF8
Codec ID/Info : UTF-8 Plain Text
Duration : 2 h 4 min
Bit rate : 15 b/s
Count of elements : 456
Stream size : 13.9 KiB (0%)
Language : Italian
Default : No
Forced : No

Text #12
ID : 14
Format : UTF-8
Codec ID : S_TEXT/UTF8
Codec ID/Info : UTF-8 Plain Text
Duration : 2 h 4 min
Bit rate : 15 b/s
Count of elements : 416
Stream size : 13.9 KiB (0%)
Language : Norwegian Bokmal
Default : No
Forced : No

Text #13
ID : 15
Format : UTF-8
Codec ID : S_TEXT/UTF8
Codec ID/Info : UTF-8 Plain Text
Duration : 2 h 4 min
Bit rate : 14 b/s
Count of elements : 386
Stream size : 13.2 KiB (0%)
Language : Polish
Default : No
Forced : No

Text #14
ID : 16
Format : UTF-8
Codec ID : S_TEXT/UTF8
Codec ID/Info : UTF-8 Plain Text
Duration : 2 h 4 min
Bit rate : 16 b/s
Count of elements : 410
Stream size : 15.3 KiB (0%)
Language : Portuguese
Default : No
Forced : No

Text #15
ID : 17
Format : UTF-8
Codec ID : S_TEXT/UTF8
Codec ID/Info : UTF-8 Plain Text
Duration : 2 h 4 min
Bit rate : 26 b/s
Count of elements : 477
Stream size : 24.1 KiB (0%)
Language : Russian
Default : No
Forced : No

Text #16
ID : 18
Format : UTF-8
Codec ID : S_TEXT/UTF8
Codec ID/Info : UTF-8 Plain Text
Duration : 2 h 4 min
Bit rate : 16 b/s
Count of elements : 449
Stream size : 14.9 KiB (0%)
Language : Spanish
Default : No
Forced : No

Text #17
ID : 19
Format : UTF-8
Codec ID : S_TEXT/UTF8
Codec ID/Info : UTF-8 Plain Text
Duration : 2 h 4 min
Bit rate : 14 b/s
Count of elements : 380
Stream size : 12.8 KiB (0%)
Language : Swedish
Default : No
Forced : No

Text #18
ID : 20
Format : UTF-8
Codec ID : S_TEXT/UTF8
Codec ID/Info : UTF-8 Plain Text
Duration : 2 h 4 min
Bit rate : 16 b/s
Count of elements : 473
Stream size : 14.8 KiB (0%)
Language : Turkish
Default : No
Forced : No

[collapse]
Download Link(s)

Part01 Part02

Direct download files get automatically deleted after a month or so. Posted on : 01/03/2019

[collapse]
Magnet Link

Magnet

Taylor.Swift.Reputation.Stadium.Tour.2018.iNTERNAL.1080p.WEB.x264-STRiFE-6.96 GB

[collapse]

Media information

General
Format : Matroska
Format version : Version 4
File size : 1.57 GiB
Duration : 2 h 5 min
Overall bit rate : 1 794 kb/s
Movie name : Taylor.Swift.Reputation.Stadium.Tour.2018.1080p.WEB-DL.6CH.x265.HEVC
Encoded date : UTC 2019-01-01 22:42:21
Writing application : mkvmerge v29.0.0 (‘Like It Or Not’) 32-bit
Writing library : libebml v1.3.6 + libmatroska v1.4.9

Video
ID : 1
Format : HEVC
Format/Info : High Efficiency Video Coding
Format profile : [email protected]@Main
Codec ID : V_MPEGH/ISO/HEVC
Duration : 2 h 5 min
Bit rate : 1 601 kb/s
Width : 1 920 pixels
Height : 800 pixels
Display aspect ratio : 2.40:1
Frame rate mode : Constant
Frame rate : 23.976 (24000/1001) FPS
Color space : YUV
Chroma subsampling : 4:2:0
Bit depth : 8 bits
Bits/(Pixel*Frame) : 0.043
Stream size : 1.40 GiB (89%)
Default : Yes
Forced : No
Color range : Limited
Color primaries : BT.709
Transfer characteristics : BT.709
Matrix coefficients : BT.709

Audio
ID : 2
Format : AAC LC SBR
Commercial name : HE-AAC
Format settings : Explicit
Codec ID : A_AAC-2
Duration : 2 h 5 min
Bit rate : 192 kb/s
Channel(s) : 6 channels
Channel layout : C L R Ls Rs LFE
Sampling rate : 48.0 kHz
Frame rate : 23.438 FPS (2048 SPF)
Compression mode : Lossy
Delay relative to video : -4 ms
Stream size : 172 MiB (11%)
Language : English
Default : Yes
Forced : No

Text
ID : 3
Format : UTF-8
Codec ID : S_TEXT/UTF8
Codec ID/Info : UTF-8 Plain Text
Duration : 2 h 5 min
Bit rate : 107 b/s
Count of elements : 2047
Stream size : 98.8 KiB (0%)
Language : English
Default : Yes
Forced : No

[collapse]
Download Link(s)

Part01 Part02

Direct download files get automatically deleted after a month or so. Posted on : 01/02/2019

[collapse]
Magnet Link

Magnet

Taylor.Swift.Reputation.Stadium.Tour.2018.1080p.NF.WEBRip.DDP5.1.x264-NTG-6.96 GB

[collapse]

Media information

General
Format : Matroska
Format version : Version 4
File size : 1 002 MiB
Duration : 2 h 5 min
Overall bit rate : 1 117 kb/s
Movie name : Taylor.Swift.Reputation.Stadium.Tour.2018.720p.WEB-DL.2CH.x264.AVC
Encoded date : UTC 2018-12-31 13:37:54
Writing application : mkvmerge v29.0.0 (‘Like It Or Not’) 32-bit
Writing library : libebml v1.3.6 + libmatroska v1.4.9

Video
ID : 28
Format : AVC
Format/Info : Advanced Video Codec
Format profile : [email protected]
Format settings : CABAC / 5 Ref Frames
Format settings, CABAC : Yes
Format settings, RefFrames : 5 frames
Codec ID : V_MPEG4/ISO/AVC
Duration : 2 h 5 min
Bit rate : 1 050 kb/s
Width : 1 280 pixels
Height : 532 pixels
Display aspect ratio : 2.40:1
Frame rate mode : Constant
Frame rate : 23.976 (24000/1001) FPS
Color space : YUV
Chroma subsampling : 4:2:0
Bit depth : 8 bits
Scan type : Progressive
Bits/(Pixel*Frame) : 0.064
Stream size : 942 MiB (94%)
Default : Yes
Forced : No
Color range : Limited
Color primaries : BT.709
Transfer characteristics : BT.709
Matrix coefficients : BT.709

Audio
ID : 1
Format : AAC LC SBR
Commercial name : HE-AAC
Format settings : Explicit
Codec ID : A_AAC-2
Duration : 2 h 5 min
Bit rate : 64.0 kb/s
Channel(s) : 2 channels
Channel layout : L R
Sampling rate : 48.0 kHz
Frame rate : 23.438 FPS (2048 SPF)
Compression mode : Lossy
Delay relative to video : 31 ms
Stream size : 57.4 MiB (6%)
Language : English
Default : Yes
Forced : No

Text #1
ID : 2
Format : UTF-8
Codec ID : S_TEXT/UTF8
Codec ID/Info : UTF-8 Plain Text
Duration : 2 h 5 min
Bit rate : 107 b/s
Count of elements : 2047
Stream size : 98.8 KiB (0%)
Title : SDH
Language : English
Default : Yes
Forced : No

Text #2
ID : 3
Format : UTF-8
Codec ID : S_TEXT/UTF8
Codec ID/Info : UTF-8 Plain Text
Duration : 2 h 4 min
Bit rate : 27 b/s
Count of elements : 463
Stream size : 25.5 KiB (0%)
Language : Arabic
Default : No
Forced : No

Text #3
ID : 4
Format : UTF-8
Codec ID : S_TEXT/UTF8
Codec ID/Info : UTF-8 Plain Text
Duration : 2 h 4 min
Bit rate : 16 b/s
Count of elements : 418
Stream size : 14.6 KiB (0%)
Language : Danish
Default : No
Forced : No

Text #4
ID : 5
Format : UTF-8
Codec ID : S_TEXT/UTF8
Codec ID/Info : UTF-8 Plain Text
Duration : 2 h 4 min
Bit rate : 18 b/s
Count of elements : 403
Stream size : 16.7 KiB (0%)
Language : German
Default : No
Forced : No

Text #5
ID : 6
Format : UTF-8
Codec ID : S_TEXT/UTF8
Codec ID/Info : UTF-8 Plain Text
Duration : 2 h 4 min
Bit rate : 29 b/s
Count of elements : 426
Stream size : 27.1 KiB (0%)
Language : Greek
Default : No
Forced : No

Text #6
ID : 7
Format : UTF-8
Codec ID : S_TEXT/UTF8
Codec ID/Info : UTF-8 Plain Text
Duration : 2 h 4 min
Bit rate : 17 b/s
Count of elements : 440
Stream size : 15.7 KiB (0%)
Language : Spanish
Default : No
Forced : No

Text #7
ID : 8
Format : UTF-8
Codec ID : S_TEXT/UTF8
Codec ID/Info : UTF-8 Plain Text
Duration : 2 h 4 min
Bit rate : 16 b/s
Count of elements : 465
Stream size : 15.2 KiB (0%)
Title : European
Language : Spanish
Default : No
Forced : No

Text #8
ID : 9
Format : UTF-8
Codec ID : S_TEXT/UTF8
Codec ID/Info : UTF-8 Plain Text
Duration : 2 h 4 min
Bit rate : 15 b/s
Count of elements : 316
Stream size : 14.0 KiB (0%)
Language : Finnish
Default : No
Forced : No

Text #9
ID : 10
Format : UTF-8
Codec ID : S_TEXT/UTF8
Codec ID/Info : UTF-8 Plain Text
Duration : 2 h 4 min
Bit rate : 17 b/s
Count of elements : 464
Stream size : 15.9 KiB (0%)
Language : French
Default : No
Forced : No

Text #10
ID : 11
Format : UTF-8
Codec ID : S_TEXT/UTF8
Codec ID/Info : UTF-8 Plain Text
Duration : 2 h 4 min
Bit rate : 26 b/s
Count of elements : 463
Stream size : 24.6 KiB (0%)
Language : Hebrew
Default : No
Forced : No

Text #11
ID : 12
Format : UTF-8
Codec ID : S_TEXT/UTF8
Codec ID/Info : UTF-8 Plain Text
Duration : 2 h 4 min
Bit rate : 16 b/s
Count of elements : 415
Stream size : 15.4 KiB (0%)
Language : Indonesian
Default : No
Forced : No

Text #12
ID : 13
Format : UTF-8
Codec ID : S_TEXT/UTF8
Codec ID/Info : UTF-8 Plain Text
Duration : 2 h 4 min
Bit rate : 15 b/s
Count of elements : 449
Stream size : 14.6 KiB (0%)
Language : Italian
Default : No
Forced : No

Text #13
ID : 14
Format : UTF-8
Codec ID : S_TEXT/UTF8
Codec ID/Info : UTF-8 Plain Text
Duration : 2 h 4 min
Bit rate : 21 b/s
Count of elements : 430
Stream size : 20.0 KiB (0%)
Language : Japanese
Default : No
Forced : No

Text #14
ID : 15
Format : UTF-8
Codec ID : S_TEXT/UTF8
Codec ID/Info : UTF-8 Plain Text
Duration : 2 h 4 min
Bit rate : 18 b/s
Count of elements : 461
Stream size : 17.0 KiB (0%)
Language : Korean
Default : No
Forced : No

Text #15
ID : 16
Format : UTF-8
Codec ID : S_TEXT/UTF8
Codec ID/Info : UTF-8 Plain Text
Duration : 2 h 4 min
Bit rate : 16 b/s
Count of elements : 402
Stream size : 14.7 KiB (0%)
Language : Norwegian Bokmal
Default : No
Forced : No

Text #16
ID : 17
Format : UTF-8
Codec ID : S_TEXT/UTF8
Codec ID/Info : UTF-8 Plain Text
Duration : 2 h 4 min
Bit rate : 14 b/s
Count of elements : 392
Stream size : 13.3 KiB (0%)
Language : Dutch
Default : No
Forced : No

Text #17
ID : 18
Format : UTF-8
Codec ID : S_TEXT/UTF8
Codec ID/Info : UTF-8 Plain Text
Duration : 2 h 4 min
Bit rate : 15 b/s
Count of elements : 380
Stream size : 13.9 KiB (0%)
Language : Polish
Default : No
Forced : No

Text #18
ID : 19
Format : UTF-8
Codec ID : S_TEXT/UTF8
Codec ID/Info : UTF-8 Plain Text
Duration : 2 h 4 min
Bit rate : 17 b/s
Count of elements : 406
Stream size : 16.1 KiB (0%)
Language : Portuguese
Default : No
Forced : No

Text #19
ID : 20
Format : UTF-8
Codec ID : S_TEXT/UTF8
Codec ID/Info : UTF-8 Plain Text
Duration : 2 h 4 min
Bit rate : 14 b/s
Count of elements : 427
Stream size : 13.7 KiB (0%)
Title : Brazilian
Language : Portuguese
Default : No
Forced : No

Text #20
ID : 21
Format : UTF-8
Codec ID : S_TEXT/UTF8
Codec ID/Info : UTF-8 Plain Text
Duration : 2 h 4 min
Bit rate : 19 b/s
Count of elements : 430
Stream size : 17.8 KiB (0%)
Language : Romanian
Default : No
Forced : No

Text #21
ID : 22
Format : UTF-8
Codec ID : S_TEXT/UTF8
Codec ID/Info : UTF-8 Plain Text
Duration : 2 h 4 min
Bit rate : 27 b/s
Count of elements : 470
Stream size : 24.9 KiB (0%)
Language : Russian
Default : No
Forced : No

Text #22
ID : 23
Format : UTF-8
Codec ID : S_TEXT/UTF8
Codec ID/Info : UTF-8 Plain Text
Duration : 2 h 4 min
Bit rate : 14 b/s
Count of elements : 371
Stream size : 13.5 KiB (0%)
Language : Swedish
Default : No
Forced : No

Text #23
ID : 24
Format : UTF-8
Codec ID : S_TEXT/UTF8
Codec ID/Info : UTF-8 Plain Text
Duration : 2 h 4 min
Bit rate : 46 b/s
Count of elements : 467
Stream size : 42.3 KiB (0%)
Language : Thai
Default : No
Forced : No

Text #24
ID : 25
Format : UTF-8
Codec ID : S_TEXT/UTF8
Codec ID/Info : UTF-8 Plain Text
Duration : 2 h 4 min
Bit rate : 16 b/s
Count of elements : 466
Stream size : 15.5 KiB (0%)
Language : Turkish
Default : No
Forced : No

Text #25
ID : 26
Format : UTF-8
Codec ID : S_TEXT/UTF8
Codec ID/Info : UTF-8 Plain Text
Duration : 2 h 4 min
Bit rate : 17 b/s
Count of elements : 466
Stream size : 15.6 KiB (0%)
Title : Simplified
Language : Chinese
Default : No
Forced : No

Text #26
ID : 27
Format : UTF-8
Codec ID : S_TEXT/UTF8
Codec ID/Info : UTF-8 Plain Text
Duration : 2 h 4 min
Bit rate : 16 b/s
Count of elements : 468
Stream size : 15.5 KiB (0%)
Title : Traditional
Language : Chinese
Default : No
Forced : No

[collapse]
Download Link(s)

Download

Direct download files get automatically deleted after a month or so. Posted on : 12/31/2018

[collapse]
Magnet Link

Magnet

Taylor.Swift.Reputation.Stadium.Tour.2018.1080p.NF.WEBRip.DDP5.1.x264-NTG-6.96 GB

[collapse]

You may also like...

error: nah :p~