Tears of the Sun (2003)

R | 2h 1min | Action, Drama, Thriller | 7 March 2003 (USA)

A Special-Ops commander leads his team into the Nigerian jungle in order to rescue a doctor who will only join them if they agree to save 70 refugees too.

Watch trailer

Media information

General
Format : Matroska
Format version : Version 4 / Version 2
File size : 1.72 GiB
Duration : 2 h 0 min
Overall bit rate : 2 041 kb/s
Movie name : Tears.Of.The.Sun.2003.1080p.BluRay.2CH.x265.HEVC
Encoded date : UTC 2018-07-31 18:37:25
Writing application : mkvmerge v25.0.0 (‘Prog Noir’) 32-bit
Writing library : libebml v1.3.6 + libmatroska v1.4.9

Video
ID : 1
Format : HEVC
Format/Info : High Efficiency Video Coding
Format profile : [email protected]@Main
Codec ID : V_MPEGH/ISO/HEVC
Duration : 2 h 0 min
Bit rate : 1 948 kb/s
Width : 1 920 pixels
Height : 800 pixels
Display aspect ratio : 2.40:1
Frame rate mode : Constant
Frame rate : 23.976 (24000/1001) FPS
Color space : YUV
Chroma subsampling : 4:2:0
Bit depth : 8 bits
Bits/(Pixel*Frame) : 0.053
Stream size : 1.65 GiB (95%)
Default : Yes
Forced : No
Color range : Limited
Color primaries : BT.709
Transfer characteristics : BT.709
Matrix coefficients : BT.709

Audio
ID : 2
Format : Opus
Codec ID : A_OPUS
Duration : 2 h 0 min
Bit rate : 90.6 kb/s
Channel(s) : 2 channels
Channel positions : Front: L R
Sampling rate : 48.0 kHz
Frame rate : 50.000 FPS (960 SPF)
Compression mode : Lossy
Stream size : 78.4 MiB (4%)
Title : Stereo
Language : English
Default : Yes
Forced : No

Text
ID : 3
Format : ASS
Codec ID : S_TEXT/ASS
Codec ID/Info : Advanced Sub Station Alpha
Duration : 1 h 51 min
Bit rate : 64 b/s
Count of elements : 1000
Compression mode : Lossless
Stream size : 52.7 KiB (0%)
Language : English
Default : Yes
Forced : Yes

[collapse]
Download Link(s)

Part01 Part02

[RE-UP]-Direct download files get automatically deleted after a month or so. Posted on : 01/04/2019

[collapse]
Magnet Link

Magnet

Tears.Of.The.Sun.2003.1080p.BluRay.x264-iKA-10.94 GB

[collapse]

Media information

General
Format : Matroska
Format version : Version 4 / Version 2
File size : 1.23 GiB
Duration : 2 h 0 min
Overall bit rate : 1 450 kb/s
Movie name : Tears.Of.The.Sun.2003.720p.BluRay.2CH.x265.HEVC
Encoded date : UTC 2018-07-28 21:43:33
Writing application : mkvmerge v25.0.0 (‘Prog Noir’) 32-bit
Writing library : libebml v1.3.6 + libmatroska v1.4.9

Video
ID : 1
Format : HEVC
Format/Info : High Efficiency Video Coding
Format profile : [email protected]@Main
Codec ID : V_MPEGH/ISO/HEVC
Duration : 2 h 0 min
Bit rate : 1 343 kb/s
Width : 1 280 pixels
Height : 534 pixels
Display aspect ratio : 2.40:1
Original display aspect ratio : 2.40:1
Frame rate mode : Constant
Frame rate : 23.976 (24000/1001) FPS
Color space : YUV
Chroma subsampling : 4:2:0
Bit depth : 8 bits
Bits/(Pixel*Frame) : 0.082
Stream size : 1.13 GiB (93%)
Default : Yes
Forced : No
Color range : Limited
Color primaries : BT.709
Transfer characteristics : BT.709
Matrix coefficients : BT.709

Audio
ID : 2
Format : Opus
Codec ID : A_OPUS
Duration : 2 h 0 min
Bit rate : 105 kb/s
Channel(s) : 2 channels
Channel positions : Front: L R
Sampling rate : 48.0 kHz
Frame rate : 50.000 FPS (960 SPF)
Compression mode : Lossy
Stream size : 91.2 MiB (7%)
Title : Stereo
Language : English
Default : Yes
Forced : No

Text
ID : 3
Format : ASS
Codec ID : S_TEXT/ASS
Codec ID/Info : Advanced Sub Station Alpha
Duration : 1 h 51 min
Bit rate : 64 b/s
Count of elements : 1000
Compression mode : Lossless
Stream size : 52.7 KiB (0%)
Language : English
Default : Yes
Forced : Yes

[collapse]
Download Link(s)

Part01 Part02

[RE-UP]-Direct download files get automatically deleted after a month or so. Posted on : 01/04/2019

[collapse]
Magnet Link

Magnet

Tears.Of.The.Sun.2003.1080p.BluRay.x264-iKA-10.94 GB

[collapse]

You may also like...

error: nah :p~