Thank You for Your Service (2017)

R | 1h 49min | Biography, Drama, War | 27 October 2017 (USA)

A group of U.S. soldiers returning from Iraq struggle to integrate back into family and civilian life, while living with the memory of a war that threatens to destroy them long after they’ve left the battlefield.

Watch trailer

Media information

General
Format : Matroska
Format version : Version 4 / Version 2
File size : 679 MiB
Duration : 1 h 48 min
Overall bit rate : 871 kb/s
Movie name : Thank.You.for.Your.Service.2017.720p.10bit.BluRay.6CH.x265.HEVC
Encoded date : UTC 2018-01-19 09:55:00
Writing application : mkvmerge v20.0.0 (‘I Am The Sun’) 32-bit
Writing library : libebml v1.3.5 + libmatroska v1.4.8

Video
ID : 1
Format : HEVC
Format/Info : High Efficiency Video Coding
Format profile : Main [email protected]@Main
Codec ID : V_MPEGH/ISO/HEVC
Duration : 1 h 48 min
Bit rate : 661 kb/s
Width : 1 280 pixels
Height : 536 pixels
Display aspect ratio : 2.40:1
Frame rate mode : Constant
Frame rate : 23.976 (24000/1001) FPS
Color space : YUV
Chroma subsampling : 4:2:0
Bit depth : 10 bits
Bits/(Pixel*Frame) : 0.040
Stream size : 516 MiB (76%)
Default : Yes
Forced : No

Audio
ID : 2
Format : AAC
Format/Info : Advanced Audio Codec
Format profile : HE-AAC / LC
Format settings : Explicit
Codec ID : A_AAC-2
Duration : 1 h 48 min
Bit rate : 207 kb/s
Channel(s) : 6 channels
Channel positions : Front: L C R, Side: L R, LFE
Sampling rate : 48.0 kHz / 24.0 kHz
Frame rate : 23.438 FPS (1024 SPF)
Compression mode : Lossy
Delay relative to video : 31 ms
Stream size : 162 MiB (24%)
Default : Yes
Forced : No

Text
ID : 3
Format : UTF-8
Codec ID : S_TEXT/UTF8
Codec ID/Info : UTF-8 Plain Text
Duration : 1 h 40 min
Bit rate : 49 b/s
Count of elements : 1237
Stream size : 36.4 KiB (0%)
Language : English
Default : Yes
Forced : No

[collapse]
Download Link(s)

Download

Direct download files get automatically deleted after a month or so. Posted on : 01/19/2018

[collapse]
Magnet Link

Magnet

Source : Thank.You.for.Your.Service.2017.1080p.BluRay.x264.DTS-HD.MA.7.1-MT-10.33 GB

[collapse]

Media information

General
Format : Matroska
Format version : Version 4 / Version 2
File size : 853 MiB
Duration : 1 h 48 min
Overall bit rate : 1 094 kb/s
Movie name : Thank.You.for.Your.Service.2017.720p.WEB-DL
Encoded date : UTC 2018-01-09 16:19:39 / UTC 2018-01-09T07:36:22Z
Writing application : mkvmerge v19.0.0 (‘Brave Captain’) 32-bit
Writing library : libebml v1.3.5 + libmatroska v1.4.8 / Lavf57.7.2

Video
ID : 3
Format : AVC
Format/Info : Advanced Video Codec
Format profile : [email protected]
Format settings : CABAC / 8 Ref Frames
Format settings, CABAC : Yes
Format settings, RefFrames : 8 frames
Codec ID : V_MPEG4/ISO/AVC
Duration : 1 h 48 min
Nominal bit rate : 1 028 kb/s
Width : 1 280 pixels
Height : 532 pixels
Display aspect ratio : 2.40:1
Original display aspect ratio : 2.40:1
Frame rate mode : Constant
Frame rate : 23.976 (24000/1001) FPS
Color space : YUV
Chroma subsampling : 4:2:0
Bit depth : 8 bits
Scan type : Progressive
Bits/(Pixel*Frame) : 0.063
Writing library : x264 core 148 r2708 86b7198
Default : Yes
Forced : No
Color range : Limited
Color primaries : BT.709
Transfer characteristics : BT.709
Matrix coefficients : BT.709
FromStats_BitRate : 1027816
FromStats_Duration : 01:48:59.533000000
FromStats_FrameCount : 156792
FromStats_StreamSize : 840180144

Audio
ID : 1
Format : AAC
Format/Info : Advanced Audio Codec
Format profile : HE-AAC / LC
Format settings : Explicit
Codec ID : A_AAC-2
Duration : 1 h 48 min
Channel(s) : 2 channels
Channel positions : Front: L R
Sampling rate : 48.0 kHz / 24.0 kHz
Frame rate : 23.438 FPS (1024 SPF)
Compression mode : Lossy
Delay relative to video : 31 ms
Language : English
Default : Yes
Forced : No
FromStats_BitRate : 63957
FromStats_Duration : 01:48:59.520000000
FromStats_FrameCount : 153270
FromStats_StreamSize : 52281078

Text
ID : 2
Format : UTF-8
Codec ID : S_TEXT/UTF8
Codec ID/Info : UTF-8 Plain Text
Language : English
Default : Yes
Forced : No
FromStats_BitRate : 48
FromStats_Duration : 01:40:31.646000000
FromStats_FrameCount : 1365
FromStats_StreamSize : 36903

[collapse]
Download Link(s)

Download

Direct download files get automatically deleted after a month or so. Posted on : 01/09/2018

[collapse]
Magnet Link

Magnet

Source : Thank.You.for.Your.Service.2017.1080p.WEB-DL.DD5.1.H264-FGT- 3.81 GB

[collapse]

You may also like...

error: nah :p~