The 61st Annual Grammy Awards (2019)

TV-14 | 2h 44min | Music | TV Special 10 February 2019

The 61st ANNUAL GRAMMY AWARDS is an awards ceremony hosted by Alicia Keys that honors excellence in the recording industry.

Watch trailer

Media information

General
Format : Matroska
Format version : Version 4
File size : 1.35 GiB
Duration : 2 h 44 min
Overall bit rate : 1 175 kb/s
Movie name : The.61st.Annual.Grammy.Awards.2019.720p.WEBRip.2CH.x265.HEVC
Encoded date : UTC 2019-02-12 20:33:41
Writing application : mkvmerge v31.0.0 (‘Dolores In A Shoestand’) 32-bit
Writing library : libebml v1.3.6 + libmatroska v1.4.9

Video
ID : 1
Format : HEVC
Format/Info : High Efficiency Video Coding
Format profile : [email protected]@Main
Codec ID : V_MPEGH/ISO/HEVC
Duration : 2 h 44 min
Bit rate : 1 047 kb/s
Width : 1 280 pixels
Height : 720 pixels
Display aspect ratio : 16:9
Frame rate mode : Constant
Frame rate : 29.970 (30000/1001) FPS
Color space : YUV
Chroma subsampling : 4:2:0
Bit depth : 8 bits
Bits/(Pixel*Frame) : 0.038
Stream size : 1.20 GiB (89%)
Default : Yes
Forced : No

Audio
ID : 2
Format : AAC LC
Codec ID : A_AAC-2
Duration : 2 h 44 min
Bit rate : 125 kb/s
Channel(s) : 2 channels
Channel layout : L R
Sampling rate : 48.0 kHz
Frame rate : 46.875 FPS (1024 SPF)
Compression mode : Lossy
Stream size : 148 MiB (11%)
Language : English
Default : Yes
Forced : No

[collapse]
Download Link(s)

Part01 Part02

Direct download files get automatically deleted after a month or so. Posted on : 02/12/2019

[collapse]
Magnet Link

Magnet

The.61st.Annual.Grammy.Awards.2019.1080p.WEB.x264-TBS-5.30 GB

[collapse]

You may also like...

error: nah :p~