The 70th Primetime Emmy Awards (2018)

2h 6min | News | TV Special 17 September 2018

Michael Che and Colin Jost host television’s biggest night, honoring the year’s best shows.

Watch trailer

Media information

General
Format : Matroska
Format version : Version 4
File size : 589 MiB
Duration : 2 h 6 min
Overall bit rate : 650 kb/s
Movie name : The.70th.Primetime.Emmy.Awards.2018.720p.WEBRip.2CH.x265.HEVC
Encoded date : UTC 2018-09-19 14:10:13
Writing application : mkvmerge v26.0.0 (‘In The Game’) 32-bit
Writing library : libebml v1.3.6 + libmatroska v1.4.9

Video
ID : 1
Format : HEVC
Format/Info : High Efficiency Video Coding
Format profile : [email protected]@Main
Codec ID : V_MPEGH/ISO/HEVC
Duration : 2 h 6 min
Bit rate : 584 kb/s
Width : 1 280 pixels
Height : 720 pixels
Display aspect ratio : 16:9
Frame rate mode : Constant
Frame rate : 29.970 (30000/1001) FPS
Color space : YUV
Chroma subsampling : 4:2:0
Bit depth : 8 bits
Bits/(Pixel*Frame) : 0.021
Stream size : 529 MiB (90%)
Default : Yes
Forced : No

Audio
ID : 2
Format : AAC LC SBR
Commercial name : HE-AAC
Format settings : Explicit
Codec ID : A_AAC-2
Duration : 2 h 6 min
Bit rate : 64.0 kb/s
Channel(s) : 2 channels
Channel layout : L R
Sampling rate : 48.0 kHz
Frame rate : 23.438 FPS (2048 SPF)
Compression mode : Lossy
Stream size : 58.0 MiB (10%)
Default : Yes
Forced : No

Text
ID : 3
Format : UTF-8
Codec ID : S_TEXT/UTF8
Codec ID/Info : UTF-8 Plain Text
Duration : 2 h 5 min
Bit rate : 77 b/s
Count of elements : 1576
Stream size : 71.2 KiB (0%)
Language : English
Default : Yes
Forced : No

[collapse]
Download Link(s)

Download

Direct download files get automatically deleted after a month or so. Posted on : 09/19/2018

[collapse]
Magnet Link

Magnet

Source : The.70th.Primetime.Emmy.Awards.2018.1080p.HULU.WEBRip.AAC2.0.H264-monkee-4.88 GB

[collapse]

You may also like...

error: nah :p~