The 71st Primetime Emmy Awards (2019)

TV-14 | 2h 52min | News, Reality-TV | TV Special 22 September 2019

Awards show celebrating and honoring television’s best.

Watch trailer

Media information

General
Format : Matroska
Format version : Version 4
File size : 734 MiB
Duration : 2 h 11 min
Overall bit rate : 783 kb/s
Movie name : The.71th.Primetime.Emmy.Awards.2019.720p.HDTV.2CH.x265.HEVC
Encoded date : UTC 2019-09-23 16:36:14
Writing application : mkvmerge v37.0.0 (‘Leave It’) 32-bit
Writing library : libebml v1.3.9 + libmatroska v1.5.2

Video
ID : 1
Format : HEVC
Format/Info : High Efficiency Video Coding
Format profile : [email protected]@Main
Codec ID : V_MPEGH/ISO/HEVC
Duration : 2 h 11 min
Bit rate : 708 kb/s
Width : 1 280 pixels
Height : 720 pixels
Display aspect ratio : 16:9
Frame rate mode : Constant
Frame rate : 29.970 (30000/1001) FPS
Color space : YUV
Chroma subsampling : 4:2:0
Bit depth : 8 bits
Bits/(Pixel*Frame) : 0.026
Stream size : 664 MiB (91%)
Default : Yes
Forced : No
Color range : Limited
Color primaries : BT.709
Transfer characteristics : BT.709
Matrix coefficients : BT.709

Audio
ID : 2
Format : AAC LC SBR
Commercial name : HE-AAC
Format settings : Explicit
Codec ID : A_AAC-2
Duration : 2 h 11 min
Bit rate : 72.0 kb/s
Channel(s) : 2 channels
Channel layout : L R
Sampling rate : 48.0 kHz
Frame rate : 23.438 FPS (2048 SPF)
Compression mode : Lossy
Delay relative to video : 23 ms
Stream size : 67.7 MiB (9%)
Language : English
Default : Yes
Forced : No

[collapse]
Download Link(s)

Download

Direct download files get automatically deleted after a month or so. Posted on : 09/23/2019

[collapse]
Magnet Link

Magnet

The.71st.Annual.Primetime.Emmy.Awards.2019.720p.HDTV.x264-LiNKLE-1.90 GB

[collapse]

You may also like...

error: nah :p~