The 75th Golden Globe Awards (2018)

The full list of winners of the Golden Globes 2018

The 75th year of the awards has been led by nominations for The Shape of Water, The Post, The Handmaid’s Tale and Big Little Lies

Watch trailer

Media information

General
Format : Matroska
Format version : Version 4 / Version 2
File size : 1.01 GiB
Duration : 2 h 11 min
Overall bit rate : 1 096 kb/s
Movie name : Golden.Globes.2018.720p.HDTV
Encoded date : UTC 2018-01-08 18:42:41
Writing application : mkvmerge v19.0.0 (‘Brave Captain’) 32-bit
Writing library : libebml v1.3.5 + libmatroska v1.4.8

Video
ID : 2
Format : AVC
Format/Info : Advanced Video Codec
Format profile : [email protected]
Format settings : CABAC / 8 Ref Frames
Format settings, CABAC : Yes
Format settings, RefFrames : 8 frames
Codec ID : V_MPEG4/ISO/AVC
Duration : 2 h 11 min
Bit rate : 1 029 kb/s
Width : 1 280 pixels
Height : 720 pixels
Display aspect ratio : 16:9
Frame rate mode : Constant
Frame rate : 50.000 FPS
Color space : YUV
Chroma subsampling : 4:2:0
Bit depth : 8 bits
Scan type : Progressive
Bits/(Pixel*Frame) : 0.022
Stream size : 967 MiB (94%)
Writing library : x264 core 148 r2708 86b7198
Default : Yes
Forced : No
Color range : Limited
Color primaries : BT.709
Transfer characteristics : BT.709
Matrix coefficients : BT.709

Audio
ID : 1
Format : AAC
Format/Info : Advanced Audio Codec
Format profile : HE-AAC / LC
Format settings : Explicit
Codec ID : A_AAC-2
Duration : 2 h 11 min
Bit rate : 64.0 kb/s
Channel(s) : 2 channels
Channel positions : Front: L R
Sampling rate : 48.0 kHz / 24.0 kHz
Frame rate : 23.438 FPS (1024 SPF)
Compression mode : Lossy
Delay relative to video : 31 ms
Stream size : 60.2 MiB (6%)
Language : English
Default : Yes
Forced : No

[collapse]
Download Link(s)

Download

Direct download files get automatically deleted after a month or so. Posted on : 01/08/2018

[collapse]
Magnet Link

Magnet

Source : Golden.Globe.75th.Anniversary.Special.2017.1080p.WEB.x264-TBS-2.51 GB

[collapse]
error: nah :p~