The Addams Family (1991)

PG-13 | 1h 39min | Comedy, Fantasy | 22 November 1991 (USA)

Con artists plan to fleece an eccentric family using an accomplice who claims to be their long-lost uncle.

Watch trailer

Media information

General
Format : Matroska
Format version : Version 4
File size : 1.45 GiB
Duration : 1 h 39 min
Overall bit rate : 2 072 kb/s
Movie name : The.Addams.Family.1991.1080p.10bit.BluRay.6CH.x265.HEVC

Video
ID : 1
Format : HEVC
Format/Info : High Efficiency Video Coding
Format profile : Main [email protected]@Main
Codec ID : V_MPEGH/ISO/HEVC
Duration : 1 h 39 min
Bit rate : 1 821 kb/s
Width : 1 916 pixels
Height : 1 026 pixels
Display aspect ratio : 1.85:1
Frame rate mode : Constant
Frame rate : 23.976 (24000/1001) FPS
Color space : YUV
Chroma subsampling : 4:2:0
Bit depth : 10 bits
Bits/(Pixel*Frame) : 0.039
Stream size : 1.27 GiB (88%)
Default : Yes
Forced : No
Color range : Limited
Color primaries : BT.709
Transfer characteristics : BT.709
Matrix coefficients : BT.709

Audio
ID : 2
Format : AAC LC
Codec ID : A_AAC-2
Duration : 1 h 39 min
Bit rate : 224 kb/s
Channel(s) : 6 channels
Channel layout : C L R Ls Rs LFE
Sampling rate : 48.0 kHz
Frame rate : 46.875 FPS (1024 SPF)
Compression mode : Lossy
Delay relative to video : -1 ms
Stream size : 160 MiB (11%)
Language : English
Default : Yes
Forced : No

Text #1
ID : 3
Format : VobSub
Muxing mode : zlib
Codec ID : S_VOBSUB
Duration : 1 h 30 min
Bit rate : 6 736 b/s
Count of elements : 1073
Stream size : 4.38 MiB (0%)
Language : English
Default : Yes
Forced : Yes

Text #2
ID : 4
Format : VobSub
Muxing mode : zlib
Codec ID : S_VOBSUB
Duration : 1 h 34 min
Bit rate : 6 536 b/s
Count of elements : 1078
Stream size : 4.41 MiB (0%)
Language : Dutch
Default : No
Forced : No

Text #3
ID : 5
Format : VobSub
Muxing mode : zlib
Codec ID : S_VOBSUB
Duration : 1 h 33 min
Bit rate : 5 437 b/s
Count of elements : 983
Stream size : 3.63 MiB (0%)
Language : French
Default : No
Forced : No

Text #4
ID : 6
Format : VobSub
Muxing mode : zlib
Codec ID : S_VOBSUB
Duration : 1 h 35 min
Bit rate : 7 526 b/s
Count of elements : 1086
Stream size : 5.15 MiB (0%)
Language : German
Default : No
Forced : No

Text #5
ID : 7
Format : VobSub
Muxing mode : zlib
Codec ID : S_VOBSUB
Duration : 8 min 23 s
Bit rate : 143 b/s
Count of elements : 2
Stream size : 8.84 KiB (0%)
Title : Forced
Language : German
Default : No
Forced : No

Text #6
ID : 8
Format : VobSub
Muxing mode : zlib
Codec ID : S_VOBSUB
Duration : 1 h 35 min
Bit rate : 6 403 b/s
Count of elements : 1086
Stream size : 4.38 MiB (0%)
Language : Italian
Default : No
Forced : No

Text #7
ID : 9
Format : VobSub
Muxing mode : zlib
Codec ID : S_VOBSUB
Duration : 1 h 34 min
Bit rate : 7 068 b/s
Count of elements : 1095
Stream size : 4.76 MiB (0%)
Language : Spanish
Default : No
Forced : No

[collapse]
Download Link(s)

Download

Direct download files get automatically deleted after a month or so. Posted on : 02/26/2021

[collapse]
Magnet Link

Magnet

The.Addams.Family.1991.1080p.BluRay.x265-HEVC-10bit-AAC-5-1-4.6 GB

[collapse]

Media information

General
Format : Matroska
Format version : Version 4
File size : 778 MiB
Duration : 1 h 39 min
Overall bit rate : 1 088 kb/s
Movie name : The.Addams.Family.1991.720p.10bit.BluRay.6CH.x265.HEVC

Video
ID : 1
Format : HEVC
Format/Info : High Efficiency Video Coding
Format profile : Main [email protected]@Main
Codec ID : V_MPEGH/ISO/HEVC
Duration : 1 h 39 min
Bit rate : 870 kb/s
Width : 1 280 pixels
Height : 686 pixels
Display aspect ratio : 1.85:1
Frame rate mode : Constant
Frame rate : 23.976 (24000/1001) FPS
Color space : YUV
Chroma subsampling : 4:2:0
Bit depth : 10 bits
Bits/(Pixel*Frame) : 0.041
Stream size : 622 MiB (80%)
Default : Yes
Forced : No
Color range : Limited
Color primaries : BT.709
Transfer characteristics : BT.709
Matrix coefficients : BT.709

Audio
ID : 2
Format : AAC LC
Codec ID : A_AAC-2
Duration : 1 h 39 min
Bit rate : 192 kb/s
Channel(s) : 6 channels
Channel layout : C L R Ls Rs LFE
Sampling rate : 48.0 kHz
Frame rate : 46.875 FPS (1024 SPF)
Compression mode : Lossy
Delay relative to video : -1 ms
Stream size : 137 MiB (18%)
Language : English
Default : Yes
Forced : No

Text #1
ID : 3
Format : VobSub
Muxing mode : zlib
Codec ID : S_VOBSUB
Duration : 1 h 30 min
Bit rate : 6 736 b/s
Count of elements : 1073
Stream size : 4.38 MiB (1%)
Language : English
Default : Yes
Forced : Yes

Text #2
ID : 4
Format : VobSub
Muxing mode : zlib
Codec ID : S_VOBSUB
Duration : 1 h 34 min
Bit rate : 6 536 b/s
Count of elements : 1078
Stream size : 4.41 MiB (1%)
Language : Dutch
Default : No
Forced : No

Text #3
ID : 5
Format : VobSub
Muxing mode : zlib
Codec ID : S_VOBSUB
Duration : 1 h 33 min
Bit rate : 5 437 b/s
Count of elements : 983
Stream size : 3.63 MiB (0%)
Language : French
Default : No
Forced : No

Text #4
ID : 6
Format : VobSub
Muxing mode : zlib
Codec ID : S_VOBSUB
Duration : 1 h 35 min
Bit rate : 7 526 b/s
Count of elements : 1086
Stream size : 5.15 MiB (1%)
Language : German
Default : No
Forced : No

Text #5
ID : 7
Format : VobSub
Muxing mode : zlib
Codec ID : S_VOBSUB
Duration : 8 min 23 s
Bit rate : 143 b/s
Count of elements : 2
Stream size : 8.84 KiB (0%)
Title : Forced
Language : German
Default : No
Forced : No

Text #6
ID : 8
Format : VobSub
Muxing mode : zlib
Codec ID : S_VOBSUB
Duration : 1 h 35 min
Bit rate : 6 403 b/s
Count of elements : 1086
Stream size : 4.38 MiB (1%)
Language : Italian
Default : No
Forced : No

Text #7
ID : 9
Format : VobSub
Muxing mode : zlib
Codec ID : S_VOBSUB
Duration : 1 h 34 min
Bit rate : 7 068 b/s
Count of elements : 1095
Stream size : 4.76 MiB (1%)
Language : Spanish
Default : No
Forced : No

[collapse]
Download Link(s)

Download

Direct download files get automatically deleted after a month or so. Posted on : 02/26/2021

[collapse]
Magnet Link

Magnet

The.Addams.Family.1991.1080p.BluRay.x265-HEVC-10bit-AAC-5-1-4.6 GB

[collapse]

You may also like...

error: nah :p~