The Aftermath (2019)

R | 1h 48min | Drama, Romance, War | 15 March 2019 (USA)

Post World War II, a British colonel and his wife are assigned to live in Hamburg during the post-war reconstruction, but tensions arise with the German who previously owned the house.

Watch trailer

Media information

General
Format : Matroska
Format version : Version 4
File size : 657 MiB
Duration : 1 h 48 min
Overall bit rate : 845 kb/s
Movie name : The.Aftermath.2019.720p.BrRip.2CH.x265.HEVC
Encoded date : UTC 2019-06-18 07:55:38
Writing application : mkvmerge v34.0.0 (‘Sight and Seen’) 32-bit
Writing library : libebml v1.3.7 + libmatroska v1.5.0

Video
ID : 1
Format : HEVC
Format/Info : High Efficiency Video Coding
Format profile : [email protected]@Main
Codec ID : V_MPEGH/ISO/HEVC
Duration : 1 h 48 min
Bit rate : 776 kb/s
Width : 1 280 pixels
Height : 688 pixels
Display aspect ratio : 1.85:1
Frame rate mode : Constant
Frame rate : 23.976 (24000/1001) FPS
Color space : YUV
Chroma subsampling : 4:2:0
Bit depth : 8 bits
Bits/(Pixel*Frame) : 0.037
Stream size : 603 MiB (92%)
Default : Yes
Forced : No

Audio
ID : 2
Format : AAC LC SBR
Commercial name : HE-AAC
Format settings : Explicit
Codec ID : A_AAC-2
Duration : 1 h 48 min
Bit rate : 66.2 kb/s
Channel(s) : 2 channels
Channel layout : L R
Sampling rate : 48.0 kHz
Frame rate : 23.438 FPS (2048 SPF)
Compression mode : Lossy
Delay relative to video : 23 ms
Stream size : 52.0 MiB (8%)
Language : English
Default : Yes
Forced : No

Text #1
ID : 3
Format : UTF-8
Codec ID : S_TEXT/UTF8
Codec ID/Info : UTF-8 Plain Text
Duration : 1 h 47 min
Bit rate : 30 b/s
Count of elements : 964
Stream size : 23.7 KiB (0%)
Title : ENG
Language : English
Default : Yes
Forced : No

Text #2
ID : 4
Format : UTF-8
Codec ID : S_TEXT/UTF8
Codec ID/Info : UTF-8 Plain Text
Duration : 1 h 48 min
Bit rate : 35 b/s
Count of elements : 1127
Stream size : 28.1 KiB (0%)
Title : ENG SDH
Language : English
Default : No
Forced : No

[collapse]
Download Link(s)

Download

Direct download files get automatically deleted after a month or so. Posted on : 06/18/2019

[collapse]
Magnet Link

Magnet

The.Aftermath.2019.1080p.BluRay.x264-GECKOS-8.75 GB

[collapse]

Media information

General
Format : Matroska
Format version : Version 4
File size : 660 MiB
Duration : 1 h 49 min
Overall bit rate : 845 kb/s
Movie name : The.Aftermath.2019.720p.WEB-DL.2CH.x265.HEVC
Encoded date : UTC 2019-06-11 11:25:08
Writing application : mkvmerge v34.0.0 (‘Sight and Seen’) 32-bit
Writing library : libebml v1.3.7 + libmatroska v1.5.0

Video
ID : 1
Format : HEVC
Format/Info : High Efficiency Video Coding
Format profile : [email protected]@Main
Codec ID : V_MPEGH/ISO/HEVC
Duration : 1 h 49 min
Bit rate : 775 kb/s
Width : 1 280 pixels
Height : 688 pixels
Display aspect ratio : 1.85:1
Frame rate mode : Constant
Frame rate : 23.976 (24000/1001) FPS
Color space : YUV
Chroma subsampling : 4:2:0
Bit depth : 8 bits
Bits/(Pixel*Frame) : 0.037
Stream size : 606 MiB (92%)
Default : Yes
Forced : No

Audio
ID : 2
Format : AAC LC SBR
Commercial name : HE-AAC
Format settings : Explicit
Codec ID : A_AAC-2
Duration : 1 h 48 min
Bit rate : 67.8 kb/s
Channel(s) : 2 channels
Channel layout : L R
Sampling rate : 48.0 kHz
Frame rate : 23.438 FPS (2048 SPF)
Compression mode : Lossy
Delay relative to video : 23 ms
Stream size : 52.7 MiB (8%)
Language : English
Default : Yes
Forced : No

Text
ID : 3
Format : UTF-8
Codec ID : S_TEXT/UTF8
Codec ID/Info : UTF-8 Plain Text
Duration : 1 h 40 min
Bit rate : 30 b/s
Count of elements : 908
Stream size : 22.5 KiB (0%)
Language : English
Default : Yes
Forced : No

[collapse]
Download Link(s)

Download

Direct download files get automatically deleted after a month or so. Posted on : 06/11/2019

[collapse]
Magnet Link

Magnet

The.Aftermath.2019.1080p.WEB-DL.DD5.1.H264-FGT-4.21 GB

[collapse]

You may also like...

error: nah :p~