The Appearance (2018)

1h 51min | Horror, Thriller | 27 June 2018 (USA)

When a medieval monk unexpectedly dies in a horrific way, the Church sends Mateho the Inquisitor, a rational man of science, to investigate the alleged ‘witch’. When Mateho himself becomes implicated as more monks die mysteriously, he must learn that science cannot explain the horrors around him, before he is seduced by the evil that haunts this monastery.

Watch trailer

Media information

General
Format : Matroska
Format version : Version 4
File size : 701 MiB
Duration : 1 h 51 min
Overall bit rate : 876 kb/s
Movie name : The.Appearance.2018.720p.WEB-DL.2CH.x265.HEVC
Encoded date : UTC 2018-12-07 23:21:27
Writing application : mkvmerge v29.0.0 (‘Like It Or Not’) 32-bit
Writing library : libebml v1.3.6 + libmatroska v1.4.9

Video
ID : 1
Format : HEVC
Format/Info : High Efficiency Video Coding
Format profile : [email protected]@Main
Codec ID : V_MPEGH/ISO/HEVC
Duration : 1 h 51 min
Bit rate : 811 kb/s
Width : 1 246 pixels
Height : 528 pixels
Display aspect ratio : 2.35:1
Original display aspect ratio : 2.35:1
Frame rate mode : Constant
Frame rate : 23.976 (24000/1001) FPS
Color space : YUV
Chroma subsampling : 4:2:0
Bit depth : 8 bits
Bits/(Pixel*Frame) : 0.051
Stream size : 648 MiB (92%)
Default : Yes
Forced : No
Color range : Limited
Color primaries : BT.709
Transfer characteristics : BT.709
Matrix coefficients : BT.709

Audio
ID : 2
Format : AAC LC SBR
Commercial name : HE-AAC
Format settings : Explicit
Codec ID : A_AAC-2
Duration : 1 h 51 min
Bit rate : 64.0 kb/s
Channel(s) : 2 channels
Channel layout : L R
Sampling rate : 48.0 kHz
Frame rate : 23.438 FPS (2048 SPF)
Compression mode : Lossy
Delay relative to video : -4 ms
Stream size : 51.2 MiB (7%)
Default : Yes
Forced : No

Text
ID : 3
Format : UTF-8
Codec ID : S_TEXT/UTF8
Codec ID/Info : UTF-8 Plain Text
Duration : 1 h 48 min
Bit rate : 26 b/s
Count of elements : 975
Stream size : 20.8 KiB (0%)
Language : English
Default : Yes
Forced : No

[collapse]
Download Link(s)

Download

Direct download files get automatically deleted after a month or so. Posted on : 12/08/2018

[collapse]
Magnet Link

Magnet

The.Appearance.2018.1080p.WEB-DL.DD5.1.H264-FGT-3.88 GB

[collapse]

You may also like...

error: nah :p~