The Black Hole (1979)

PG | 1h 38min | Action, Sci-Fi | 21 December 1979 (USA)

A research vessel finds a missing ship, commanded by a mysterious scientist, on the edge of a black hole.

Watch trailer

Media information

General
Format : Matroska
Format version : Version 4
File size : 926 MiB
Duration : 1 h 37 min
Overall bit rate : 1 325 kb/s
Movie name : The.Black.Hole.1979.720p.10bit.WEBRip.6CH.x265.HEVC
Encoded date : UTC 2018-09-22 17:30:29
Writing application : mkvmerge v26.0.0 (‘In The Game’) 32-bit
Writing library : libebml v1.3.6 + libmatroska v1.4.9

Video
ID : 1
Format : HEVC
Format/Info : High Efficiency Video Coding
Format profile : Main [email protected]@Main
Codec ID : V_MPEGH/ISO/HEVC
Duration : 1 h 37 min
Bit rate : 1 135 kb/s
Width : 1 280 pixels
Height : 544 pixels
Display aspect ratio : 2.35:1
Frame rate mode : Constant
Frame rate : 23.976 (24000/1001) FPS
Color space : YUV
Chroma subsampling : 4:2:0
Bit depth : 10 bits
Bits/(Pixel*Frame) : 0.068
Stream size : 794 MiB (86%)
Default : Yes
Forced : No

Audio
ID : 2
Format : AAC LC SBR
Commercial name : HE-AAC
Format settings : Explicit
Codec ID : A_AAC-2
Duration : 1 h 37 min
Bit rate : 188 kb/s
Channel(s) : 6 channels
Channel layout : C L R Ls Rs LFE
Sampling rate : 48.0 kHz
Frame rate : 23.438 FPS (2048 SPF)
Compression mode : Lossy
Delay relative to video : 23 ms
Stream size : 131 MiB (14%)
Language : English
Default : Yes
Forced : No

Text
ID : 3
Format : UTF-8
Codec ID : S_TEXT/UTF8
Codec ID/Info : UTF-8 Plain Text
Duration : 1 h 26 min
Bit rate : 53 b/s
Count of elements : 793
Stream size : 34.1 KiB (0%)
Language : English
Default : Yes
Forced : No

[collapse]
Download Link(s)

Download

Direct download files get automatically deleted after a month or so. Posted on : 09/22/2018

[collapse]
Magnet Link

Magnet

Source : The.Black.Hole.1979.1080p.AMZN.WEBRip.DD5.1.x264-QOQ-9.50 GB

[collapse]

You may also like...

error: nah :p~