The Bodyguard (1992)

R | 2h 9min | Drama , Music , Romance | 25 November 1992 (USA)

A former Secret Service agent takes on the job of bodyguard to an R&B singer, whose lifestyle is most unlike a President’s.

Watch trailer

Media information

General
Format : Matroska
Format version : Version 4
File size : 1.57 GiB
Duration : 2 h 9 min
Overall bit rate : 1 732 kb/s
Movie name : The.Bodyguard.1992.1080p.BluRay.2CH.x265.HEVC
Encoded date : UTC 2018-10-05 20:57:13
Writing application : mkvmerge v27.0.0 (‘Metropolis’) 32-bit
Writing library : libebml v1.3.6 + libmatroska v1.4.9

Video
ID : 1
Format : HEVC
Format/Info : High Efficiency Video Coding
Format profile : [email protected]@Main
Codec ID : V_MPEGH/ISO/HEVC
Duration : 2 h 9 min
Bit rate : 1 619 kb/s
Width : 1 920 pixels
Height : 1 080 pixels
Display aspect ratio : 16:9
Frame rate mode : Constant
Frame rate : 23.976 (24000/1001) FPS
Color space : YUV
Chroma subsampling : 4:2:0
Bit depth : 8 bits
Bits/(Pixel*Frame) : 0.033
Stream size : 1.46 GiB (93%)
Default : Yes
Forced : No
Color range : Limited
Color primaries : BT.709
Transfer characteristics : BT.709
Matrix coefficients : BT.709

Audio
ID : 2
Format : AAC LC
Codec ID : A_AAC-2
Duration : 2 h 9 min
Bit rate : 111 kb/s
Channel(s) : 2 channels
Channel layout : L R
Sampling rate : 48.0 kHz
Frame rate : 46.875 FPS (1024 SPF)
Compression mode : Lossy
Stream size : 103 MiB (6%)
Title : Stereo
Language : English
Default : Yes
Forced : No

Text
ID : 3
Format : ASS
Codec ID : S_TEXT/ASS
Duration : 2 h 8 min
Bit rate : 87 b/s
Count of elements : 1493
Compression mode : Lossless
Stream size : 82.6 KiB (0%)
Language : English
Default : Yes
Forced : Yes

[collapse]
Download Link(s)

Part01 Part02

Direct download files get automatically deleted after a month or so. Posted on : 10/06/2018

[collapse]
Magnet Link

Magnet

Source : The.Bodyguard.1992.1080p.BluRay.X264-7SinS-8.74 GB

[collapse]

Media information

General
Format : Matroska
Format version : Version 4
File size : 884 MiB
Duration : 2 h 9 min
Overall bit rate : 955 kb/s
Movie name : The.Bodyguard.1992.720p.BluRay.2CH.x265.HEVC
Encoded date : UTC 2018-10-03 17:57:40
Writing application : mkvmerge v27.0.0 (‘Metropolis’) 32-bit
Writing library : libebml v1.3.6 + libmatroska v1.4.9

Video
ID : 1
Format : HEVC
Format/Info : High Efficiency Video Coding
Format profile : [email protected]@Main
Codec ID : V_MPEGH/ISO/HEVC
Duration : 2 h 9 min
Bit rate : 858 kb/s
Width : 1 280 pixels
Height : 720 pixels
Display aspect ratio : 16:9
Frame rate mode : Constant
Frame rate : 23.976 (24000/1001) FPS
Color space : YUV
Chroma subsampling : 4:2:0
Bit depth : 8 bits
Bits/(Pixel*Frame) : 0.039
Stream size : 793 MiB (90%)
Default : Yes
Forced : No
Color range : Limited
Color primaries : BT.709
Transfer characteristics : BT.709
Matrix coefficients : BT.709

Audio
ID : 2
Format : AAC LC
Codec ID : A_AAC-2
Duration : 2 h 9 min
Bit rate : 96.0 kb/s
Channel(s) : 2 channels
Channel layout : L R
Sampling rate : 48.0 kHz
Frame rate : 46.875 FPS (1024 SPF)
Compression mode : Lossy
Stream size : 88.3 MiB (10%)
Title : Stereo
Language : English
Default : Yes
Forced : No

Text
ID : 3
Format : ASS
Codec ID : S_TEXT/ASS
Duration : 2 h 8 min
Bit rate : 87 b/s
Count of elements : 1493
Compression mode : Lossless
Stream size : 82.6 KiB (0%)
Language : English
Default : Yes
Forced : Yes

[collapse]
Download Link(s)

Download

Direct download files get automatically deleted after a month or so. Posted on : 10/03/2018

[collapse]
Magnet Link

Magnet

Source : The.Bodyguard.1992.1080p.BluRay.X264-7SinS-8.74 GB

[collapse]

You may also like...

error: nah :p~