The Bouncer (2018)

Lukas (original title)|R | 1h 34min | Action, Drama, Thriller | 22 August 2018 (France)

A nightclub bouncer in his fifties who’s taken punches, literally and figuratively, struggles to raise his 8-year-old daughter.

Watch trailer

Media information

General
Format : Matroska
Format version : Version 4
File size : 487 MiB
Duration : 1 h 26 min
Overall bit rate : 786 kb/s
Movie name : The.Bouncer.A.K.A.Lukas.2018.720p.BrRip.2CH.x265.HEVC
Encoded date : UTC 2019-04-19 21:17:01
Writing application : mkvmerge v33.1.0 (‘Primrose’) 32-bit
Writing library : libebml v1.3.7 + libmatroska v1.5.0

Video
ID : 1
Format : HEVC
Format/Info : High Efficiency Video Coding
Format profile : [email protected]@Main
Codec ID : V_MPEGH/ISO/HEVC
Duration : 1 h 26 min
Bit rate : 709 kb/s
Width : 1 280 pixels
Height : 536 pixels
Display aspect ratio : 2.40:1
Frame rate mode : Constant
Frame rate : 24.000 FPS
Color space : YUV
Chroma subsampling : 4:2:0
Bit depth : 8 bits
Bits/(Pixel*Frame) : 0.043
Stream size : 439 MiB (90%)
Default : Yes
Forced : No

Audio
ID : 2
Format : AAC LC SBR
Commercial name : HE-AAC
Format settings : Explicit
Codec ID : A_AAC-2
Duration : 1 h 26 min
Bit rate : 75.3 kb/s
Channel(s) : 2 channels
Channel layout : L R
Sampling rate : 48.0 kHz
Frame rate : 23.438 FPS (2048 SPF)
Compression mode : Lossy
Delay relative to video : 23 ms
Stream size : 46.7 MiB (10%)
Language : English
Default : Yes
Forced : No

Text
ID : 3
Format : UTF-8
Codec ID : S_TEXT/UTF8
Codec ID/Info : UTF-8 Plain Text
Duration : 1 h 19 min
Bit rate : 26 b/s
Count of elements : 601
Stream size : 15.3 KiB (0%)
Language : English
Default : Yes
Forced : No

[collapse]
Download Link(s)

Download

Direct download files get automatically deleted after a month or so. Posted on : 04/20/2019

[collapse]
Magnet Link

Magnet

The.Bouncer.2018.LiMiTED.1080p.BluRay.x264-CADAVER-6.56 GB

[collapse]

You may also like...

error: nah :p~