The Brink (2019)

Not Rated | 1h 31min | Documentary | 29 March 2019 (USA)

A fly-on-the-wall chronicle of embattled former White House chief strategist Stephen K. Bannon’s global mission to spread extreme nationalism.

Watch trailer

Media information

General
Format : Matroska
Format version : Version 4
File size : 751 MiB
Duration : 1 h 31 min
Overall bit rate : 1 151 kb/s
Movie name : The.Brink.2019.720p.WEB-DL.2CH.x264.AVC
Encoded date : UTC 2019-06-18 19:40:51
Writing application : mkvmerge v34.0.0 (‘Sight and Seen’) 32-bit
Writing library : libebml v1.3.7 + libmatroska v1.5.0

Video
ID : 1
Format : AVC
Format/Info : Advanced Video Codec
Format profile : [email protected]
Format settings : CABAC / 5 Ref Frames
Format settings, CABAC : Yes
Format settings, Reference frames : 5 frames
Codec ID : V_MPEG4/ISO/AVC
Duration : 1 h 31 min
Bit rate : 1 085 kb/s
Width : 1 280 pixels
Height : 720 pixels
Display aspect ratio : 16:9
Frame rate mode : Constant
Frame rate : 23.976 (24000/1001) FPS
Color space : YUV
Chroma subsampling : 4:2:0
Bit depth : 8 bits
Scan type : Progressive
Bits/(Pixel*Frame) : 0.049
Stream size : 708 MiB (94%)
Default : Yes
Forced : No

Audio
ID : 2
Format : AAC LC SBR
Commercial name : HE-AAC
Format settings : Explicit
Codec ID : A_AAC-2
Duration : 1 h 31 min
Bit rate : 64.0 kb/s
Channel(s) : 2 channels
Channel layout : L R
Sampling rate : 48.0 kHz
Frame rate : 23.438 FPS (2048 SPF)
Compression mode : Lossy
Delay relative to video : 1 ms
Stream size : 41.7 MiB (6%)
Language : English
Default : Yes
Forced : No

Text
ID : 3
Format : UTF-8
Codec ID : S_TEXT/UTF8
Codec ID/Info : UTF-8 Plain Text
Duration : 1 h 27 min
Bit rate : 123 b/s
Count of elements : 1842
Stream size : 78.9 KiB (0%)
Language : English
Default : Yes
Forced : No

[collapse]
Download Link(s)

Download

Direct download files get automatically deleted after a month or so. Posted on : 06/18/2019

[collapse]
Magnet Link

Magnet

The.Brink.2019.1080p.WEB-DL.DD5.1.H264-FGT-3.59 GB

[collapse]

You may also like...

error: nah :p~