The Cold Blue (2018)

Not Rated | 1h 12min | Documentary | 17 June 2018 (USA)

A tribute to one of the world’s great filmmakers and the men of the 8th Air Force who flew mission after suicidal mission in the Second World War.

Watch trailer

Media information

General
Format : Matroska
Format version : Version 4
File size : 652 MiB
Duration : 1 h 13 min
Overall bit rate : 1 248 kb/s
Movie name : The.Cold.Blue.2019.720p.WEB-DL.2CH.x264.AVC
Encoded date : UTC 2019-06-07 15:48:54
Writing application : mkvmerge v34.0.0 (‘Sight and Seen’) 32-bit
Writing library : libebml v1.3.7 + libmatroska v1.5.0

Video
ID : 1
Format : AVC
Format/Info : Advanced Video Codec
Format profile : [email protected]
Format settings : CABAC / 5 Ref Frames
Format settings, CABAC : Yes
Format settings, Reference frames : 5 frames
Codec ID : V_MPEG4/ISO/AVC
Duration : 1 h 13 min
Bit rate : 1 182 kb/s
Width : 1 280 pixels
Height : 720 pixels
Display aspect ratio : 16:9
Frame rate mode : Constant
Frame rate : 23.976 (24000/1001) FPS
Color space : YUV
Chroma subsampling : 4:2:0
Bit depth : 8 bits
Scan type : Progressive
Bits/(Pixel*Frame) : 0.053
Stream size : 618 MiB (95%)
Default : Yes
Forced : No

Audio
ID : 2
Format : AAC LC SBR
Commercial name : HE-AAC
Format settings : Explicit
Codec ID : A_AAC-2
Duration : 1 h 13 min
Bit rate : 64.0 kb/s
Channel(s) : 2 channels
Channel layout : L R
Sampling rate : 48.0 kHz
Frame rate : 23.438 FPS (2048 SPF)
Compression mode : Lossy
Delay relative to video : 43 ms
Stream size : 33.4 MiB (5%)
Language : English
Default : Yes
Forced : No

Text #1
ID : 3
Format : UTF-8
Codec ID : S_TEXT/UTF8
Codec ID/Info : UTF-8 Plain Text
Duration : 1 h 12 min
Bit rate : 51 b/s
Count of elements : 698
Stream size : 27.2 KiB (0%)
Language : English
Default : Yes
Forced : No

Text #2
ID : 4
Format : UTF-8
Codec ID : S_TEXT/UTF8
Codec ID/Info : UTF-8 Plain Text
Duration : 1 h 12 min
Bit rate : 52 b/s
Count of elements : 732
Stream size : 28.0 KiB (0%)
Title : SDH
Language : English
Default : No
Forced : No

[collapse]
Download Link(s)

Download

Direct download files get automatically deleted after a month or so. Posted on : 06/07/2019

[collapse]
Magnet Link

Magnet

The.Cold.Blue.2019.1080p.AMZN.WEBRip.DDP5.1.x264-NTG-4.44 GB

[collapse]

You may also like...

error: nah :p~