The Collection (2012)

R | 1h 22min | Action, Horror, Thriller | 30 November 2012 (USA)

A man who escapes from the vicious grips of the serial killer known as “The Collector” is then forced to help rescue an innocent girl from the killer’s booby-trapped lair.

Watch trailer

Media information

General
Format : Matroska
Format version : Version 4
File size : 563 MiB
Duration : 1 h 21 min
Overall bit rate : 965 kb/s
Movie name : The.Collection.2012.720p.BluRay.2CH.x265.HEVC
Encoded date : UTC 2019-06-18 11:01:15
Writing application : mkvmerge v34.0.0 (‘Sight and Seen’) 32-bit
Writing library : libebml v1.3.7 + libmatroska v1.5.0

Video
ID : 1
Format : AVC
Format/Info : Advanced Video Codec
Format profile : [email protected]
Format settings : CABAC / 6 Ref Frames
Format settings, CABAC : Yes
Format settings, Reference frames : 6 frames
Codec ID : V_MPEG4/ISO/AVC
Duration : 1 h 21 min
Bit rate : 898 kb/s
Width : 1 280 pixels
Height : 540 pixels
Display aspect ratio : 2.40:1
Frame rate mode : Constant
Frame rate : 23.976 (24000/1001) FPS
Color space : YUV
Chroma subsampling : 4:2:0
Bit depth : 8 bits
Scan type : Progressive
Bits/(Pixel*Frame) : 0.054
Stream size : 525 MiB (93%)
Default : Yes
Forced : No
Color range : Limited
Color primaries : BT.709
Transfer characteristics : BT.709
Matrix coefficients : BT.709

Audio
ID : 2
Format : AAC LC
Codec ID : A_AAC-2
Duration : 1 h 21 min
Bit rate : 64.4 kb/s
Channel(s) : 2 channels
Channel layout : L R
Sampling rate : 48.0 kHz
Frame rate : 46.875 FPS (1024 SPF)
Compression mode : Lossy
Delay relative to video : -64 ms
Stream size : 37.6 MiB (7%)
Title : Stereo
Language : English
Default : Yes
Forced : No

Text
ID : 3
Format : ASS
Codec ID : S_TEXT/ASS
Duration : 1 h 15 min
Bit rate : 53 b/s
Count of elements : 658
Compression mode : Lossless
Stream size : 29.8 KiB (0%)
Language : English
Default : Yes
Forced : Yes

[collapse]
Download Link(s)

Download

Direct download files get automatically deleted after a month or so. Posted on : 06/18/2019

[collapse]
Magnet Link

Magnet

The.Collection.2012.1080p.BluRay.x264-DAA-5.46 GB

[collapse]

You may also like...

error: nah :p~