The Commodore Story (2018)

2h | Documentary | 23 February 2018 (USA)

The Commodore Story of the PET Vic20 C64 and Amiga from engineers, games developers and how Commodore influenced the first 8-bit generation users.

Watch trailer

Media information

General
Format : Matroska
Format version : Version 4 / Version 2
File size : 1.04 GiB
Duration : 2 h 11 min
Overall bit rate : 1 141 kb/s
Movie name : The.Commodore.Story.2018.720p.WEB-DL.2CH.x264.AVC
Encoded date : UTC 2018-07-07 12:30:39
Writing application : mkvmerge v24.0.0 (‘Beyond The Pale’) 32-bit
Writing library : libebml v1.3.6 + libmatroska v1.4.9

Video
ID : 1
Format : AVC
Format/Info : Advanced Video Codec
Format profile : [email protected]
Format settings : CABAC / 4 Ref Frames
Format settings, CABAC : Yes
Format settings, RefFrames : 4 frames
Codec ID : V_MPEG4/ISO/AVC
Duration : 2 h 11 min
Bit rate : 1 000 kb/s
Width : 1 280 pixels
Height : 720 pixels
Display aspect ratio : 16:9
Frame rate mode : Constant
Frame rate : 23.976 (24000/1001) FPS
Color space : YUV
Chroma subsampling : 4:2:0
Bit depth : 8 bits
Scan type : Progressive
Bits/(Pixel*Frame) : 0.045
Stream size : 948 MiB (89%)
Default : Yes
Forced : No
Color range : Limited
Color primaries : BT.709
Transfer characteristics : BT.709
Matrix coefficients : BT.709

Audio
ID : 2
Format : AAC
Format/Info : Advanced Audio Codec
Format profile : HE-AAC / LC
Format settings : NBC
Codec ID : A_AAC-5
Duration : 2 h 11 min
Bit rate : 128 kb/s
Channel(s) : 2 channels
Channel positions : Front: L R
Sampling rate : 48.0 kHz / 24.0 kHz
Frame rate : 23.438 FPS (1024 SPF)
Compression mode : Lossy
Delay relative to video : -105 ms
Stream size : 120 MiB (11%)
Language : English
Default : Yes
Forced : Yes

Text #1
ID : 3
Format : ASS
Codec ID : S_TEXT/ASS
Codec ID/Info : Advanced Sub Station Alpha
Duration : 2 h 7 min
Bit rate : 139 b/s
Count of elements : 1375
Compression mode : Lossless
Stream size : 130 KiB (0%)
Language : English
Default : Yes
Forced : No

Text #2
ID : 4
Format : ASS
Codec ID : S_TEXT/ASS
Codec ID/Info : Advanced Sub Station Alpha
Duration : 2 h 8 min
Bit rate : 138 b/s
Count of elements : 1384
Compression mode : Lossless
Stream size : 130 KiB (0%)
Language : English
Default : No
Forced : No

[collapse]
Download Link(s)

Part01 Part02

Direct download files get automatically deleted after a month or so. Posted on : 07/07/2018

[collapse]
Magnet Link

Magnet

Source : The.Commodore.Story.2018.1080p.AMZN.WEBRip.DDP2.0.x264-QOQ-6.27 GB

[collapse]

You may also like...

error: nah :p~