The Count of Monte Cristo (2002)

PG-13 | 2h 11min | Action, Adventure, Drama | 25 January 2002 (USA)

A young man, falsely imprisoned by his jealous “friend”, escapes and uses a hidden treasure to exact his revenge.

Watch trailer

Media information

General
Format : Matroska
Format version : Version 4
File size : 1.57 GiB
Duration : 2 h 11 min
Overall bit rate : 1 709 kb/s
Movie name : The.Count.of.Monte.Cristo.2002.1080p.10bit.BluRay.6CH.x265.HEVC

Video
ID : 1
Format : HEVC
Format/Info : High Efficiency Video Coding
Format profile : Main [email protected]@Main
Codec ID : V_MPEGH/ISO/HEVC
Duration : 2 h 11 min
Bit rate : 1 501 kb/s
Width : 1 920 pixels
Height : 1 040 pixels
Display aspect ratio : 1.85:1
Frame rate mode : Constant
Frame rate : 23.976 (24000/1001) FPS
Color space : YUV
Chroma subsampling : 4:2:0
Bit depth : 10 bits
Bits/(Pixel*Frame) : 0.031
Stream size : 1.38 GiB (88%)
Default : Yes
Forced : No
Color range : Limited
Color primaries : BT.709
Transfer characteristics : BT.709
Matrix coefficients : BT.709

Audio
ID : 2
Format : AAC LC
Codec ID : A_AAC-2
Duration : 2 h 11 min
Bit rate : 192 kb/s
Channel(s) : 6 channels
Channel layout : C L R Ls Rs LFE
Sampling rate : 48.0 kHz
Frame rate : 46.875 FPS (1024 SPF)
Compression mode : Lossy
Delay relative to video : -1 ms
Stream size : 180 MiB (11%)
Language : English
Default : Yes
Forced : No

Text #1
ID : 3
Format : VobSub
Muxing mode : zlib
Codec ID : S_VOBSUB
Duration : 2 h 5 min
Bit rate : 9 585 b/s
Count of elements : 1457
Stream size : 8.58 MiB (1%)
Language : English
Default : Yes
Forced : Yes

Text #2
ID : 4
Format : VobSub
Muxing mode : zlib
Codec ID : S_VOBSUB
Duration : 2 h 6 min
Bit rate : 8 771 b/s
Count of elements : 1330
Stream size : 7.93 MiB (0%)
Language : French
Default : No
Forced : No

Text #3
ID : 5
Format : VobSub
Muxing mode : zlib
Codec ID : S_VOBSUB
Duration : 2 h 6 min
Bit rate : 8 266 b/s
Count of elements : 1350
Stream size : 7.47 MiB (0%)
Language : Spanish
Default : No
Forced : No

[collapse]
Download Link(s)

Download

Direct download files get automatically deleted after a month or so. Posted on : 05/26/2020

[collapse]
Magnet Link

Magnet

The-Count-of-Monte-Cristo-2002-1080p-BluRay-x265-HEVC-10bit-AAC-5-1-5.8 GB

[collapse]

Media information

General
Format : Matroska
Format version : Version 4
File size : 948 MiB
Duration : 2 h 11 min
Overall bit rate : 1 009 kb/s
Movie name : The.Count.of.Monte.Cristo.2002.720p.10bit.BluRay.6CH.x265.HEVC

Video
ID : 1
Format : HEVC
Format/Info : High Efficiency Video Coding
Format profile : Main [email protected]@Main
Codec ID : V_MPEGH/ISO/HEVC
Duration : 2 h 11 min
Bit rate : 801 kb/s
Width : 1 280 pixels
Height : 694 pixels
Display aspect ratio : 1.85:1
Frame rate mode : Constant
Frame rate : 23.976 (24000/1001) FPS
Color space : YUV
Chroma subsampling : 4:2:0
Bit depth : 10 bits
Bits/(Pixel*Frame) : 0.038
Stream size : 752 MiB (79%)
Default : Yes
Forced : No
Color range : Limited
Color primaries : BT.709
Transfer characteristics : BT.709
Matrix coefficients : BT.709

Audio
ID : 2
Format : AAC LC
Codec ID : A_AAC-2
Duration : 2 h 11 min
Bit rate : 192 kb/s
Channel(s) : 6 channels
Channel layout : C L R Ls Rs LFE
Sampling rate : 48.0 kHz
Frame rate : 46.875 FPS (1024 SPF)
Compression mode : Lossy
Delay relative to video : -1 ms
Stream size : 180 MiB (19%)
Language : English
Default : Yes
Forced : No

Text #1
ID : 3
Format : VobSub
Muxing mode : zlib
Codec ID : S_VOBSUB
Duration : 2 h 5 min
Bit rate : 9 585 b/s
Count of elements : 1457
Stream size : 8.58 MiB (1%)
Language : English
Default : Yes
Forced : Yes

Text #2
ID : 4
Format : VobSub
Muxing mode : zlib
Codec ID : S_VOBSUB
Duration : 2 h 6 min
Bit rate : 8 771 b/s
Count of elements : 1330
Stream size : 7.93 MiB (1%)
Language : French
Default : No
Forced : No

Text #3
ID : 5
Format : VobSub
Muxing mode : zlib
Codec ID : S_VOBSUB
Duration : 2 h 6 min
Bit rate : 8 266 b/s
Count of elements : 1350
Stream size : 7.47 MiB (1%)
Language : Spanish
Default : No
Forced : No

[collapse]
Download Link(s)

Download

Direct download files get automatically deleted after a month or so. Posted on : 05/26/2020

[collapse]
Magnet Link

Magnet

The-Count-of-Monte-Cristo-2002-1080p-BluRay-x265-HEVC-10bit-AAC-5-1-5.8 GB

[collapse]

You may also like...

error: nah :p~