The Death of Dick Long (2019)

R | 1h 40min | Comedy, Crime, Drama | 27 September 2019 (USA)

Dick died last night, and Zeke and Earl don’t want anybody finding out how. That’s too bad though, cause news travels fast in small-town Alabama.

Watch trailer

Media information

General
Format : Matroska
Format version : Version 4
File size : 684 MiB
Duration : 1 h 40 min
Overall bit rate : 953 kb/s
Movie name : The.Death.Of.Dick.Long.2019.720p.WEB-DL.2CH.x265.HEVC
Encoded date : UTC 2019-10-08 16:56:19
Writing application : mkvmerge v38.0.0 (‘The Silent Type’) 32-bit
Writing library : libebml v1.3.9 + libmatroska v1.5.2

Video
ID : 1
Format : HEVC
Format/Info : High Efficiency Video Coding
Format profile : [email protected]@Main
Codec ID : V_MPEGH/ISO/HEVC
Duration : 1 h 40 min
Bit rate : 887 kb/s
Width : 1 280 pixels
Height : 640 pixels
Display aspect ratio : 2.000
Frame rate mode : Constant
Frame rate : 23.976 (24000/1001) FPS
Color space : YUV
Chroma subsampling : 4:2:0
Bit depth : 8 bits
Bits/(Pixel*Frame) : 0.045
Stream size : 637 MiB (93%)
Default : Yes
Forced : No
Color range : Limited
Color primaries : BT.709
Transfer characteristics : BT.709
Matrix coefficients : BT.709

Audio
ID : 2
Format : AAC LC SBR
Commercial name : HE-AAC
Format settings : Explicit
Codec ID : A_AAC-2
Duration : 1 h 40 min
Bit rate : 63.5 kb/s
Channel(s) : 2 channels
Channel layout : L R
Sampling rate : 48.0 kHz
Frame rate : 23.438 FPS (2048 SPF)
Compression mode : Lossy
Delay relative to video : 23 ms
Stream size : 45.6 MiB (7%)
Language : English
Default : Yes
Forced : No

Text
ID : 3
Format : UTF-8
Codec ID : S_TEXT/UTF8
Codec ID/Info : UTF-8 Plain Text
Duration : 1 h 39 min
Bit rate : 67 b/s
Count of elements : 1720
Stream size : 49.1 KiB (0%)
Language : English
Default : Yes
Forced : No

[collapse]
Download Link(s)

Download

Direct download files get automatically deleted after a month or so. Posted on : 10/09/2019

[collapse]
Magnet Link

Magnet

The.Death.Of.Dick.Long.2019.1080p.WEB-DL.DD5.1.H264-FGT-3.91 GB

[collapse]

Media information

General
Format : Matroska
Format version : Version 4
File size : 878 MiB
Duration : 1 h 40 min
Overall bit rate : 1 224 kb/s
Movie name : The.Death.of.Dick.Long.2019.720p.WEB-DL.2CH.x264.AVC
Encoded date : UTC 2019-10-08 15:06:17
Writing application : mkvmerge v38.0.0 (‘The Silent Type’) 32-bit
Writing library : libebml v1.3.9 + libmatroska v1.5.2

Video
ID : 1
Format : AVC
Format/Info : Advanced Video Codec
Format profile : [email protected]
Format settings : CABAC / 4 Ref Frames
Format settings, CABAC : Yes
Format settings, Reference frames : 4 frames
Codec ID : V_MPEG4/ISO/AVC
Duration : 1 h 40 min
Bit rate : 1 100 kb/s
Width : 1 280 pixels
Height : 638 pixels
Display aspect ratio : 2.006
Frame rate mode : Constant
Frame rate : 23.976 (24000/1001) FPS
Color space : YUV
Chroma subsampling : 4:2:0
Bit depth : 8 bits
Scan type : Progressive
Bits/(Pixel*Frame) : 0.056
Stream size : 784 MiB (89%)
Default : Yes
Forced : No
Color range : Limited
Color primaries : BT.709
Transfer characteristics : BT.709
Matrix coefficients : BT.709

Audio
ID : 2
Format : AAC LC
Codec ID : A_AAC-2
Duration : 1 h 40 min
Bit rate : 128 kb/s
Channel(s) : 2 channels
Channel layout : L R
Sampling rate : 48.0 kHz
Frame rate : 46.875 FPS (1024 SPF)
Compression mode : Lossy
Delay relative to video : -21 ms
Stream size : 92.0 MiB (10%)
Language : English
Default : Yes
Forced : No

Text
ID : 3
Format : ASS
Codec ID : S_TEXT/ASS
Duration : 1 h 39 min
Bit rate : 138 b/s
Count of elements : 1719
Compression mode : Lossless
Stream size : 101 KiB (0%)
Language : English
Default : Yes
Forced : No

[collapse]
Download Link(s)

Download

Direct download files get automatically deleted after a month or so. Posted on : 10/08/2019

[collapse]
Magnet Link

Magnet

The.Death.Of.Dick.Long.2019.1080p.WEB-DL.DD5.1.H264-FGT-3.91 GB

[collapse]

You may also like...

error: nah :p~