The Death of Stalin (2017)

R | 1h 46min | Comedy, History | 20 October 2017 (UK)

Follows the Soviet dictator’s last days and depicts the chaos of the regime after his death.

Watch trailer

Media information

General
Format : Matroska
Format version : Version 4 / Version 2
File size : 843 MiB
Duration : 1 h 46 min
Overall bit rate : 1 106 kb/s
Movie name : The.Death.of.Stalin.2017.720p.BrRip.2CH.x265.HEVC
Encoded date : UTC 2018-02-23 22:37:06
Writing application : mkvmerge v20.0.0 (‘I Am The Sun’) 32-bit
Writing library : libebml v1.3.5 + libmatroska v1.4.8

Video
ID : 1
Format : HEVC
Format/Info : High Efficiency Video Coding
Format profile : [email protected]@Main
Codec ID : V_MPEGH/ISO/HEVC
Duration : 1 h 46 min
Bit rate : 1 042 kb/s
Width : 1 280 pixels
Height : 688 pixels
Display aspect ratio : 1.85:1
Frame rate mode : Constant
Frame rate : 24.000 FPS
Color space : YUV
Chroma subsampling : 4:2:0
Bit depth : 8 bits
Bits/(Pixel*Frame) : 0.049
Stream size : 794 MiB (94%)
Default : Yes
Forced : No

Audio
ID : 2
Format : AAC
Format/Info : Advanced Audio Codec
Format profile : HE-AAC / LC
Format settings : Explicit
Codec ID : A_AAC-2
Duration : 1 h 46 min
Bit rate : 61.8 kb/s
Channel(s) : 2 channels
Channel positions : Front: L R
Sampling rate : 48.0 kHz / 24.0 kHz
Frame rate : 23.438 FPS (1024 SPF)
Compression mode : Lossy
Delay relative to video : 23 ms
Stream size : 47.1 MiB (6%)
Default : Yes
Forced : No

Text #1
ID : 3
Format : UTF-8
Codec ID : S_TEXT/UTF8
Codec ID/Info : UTF-8 Plain Text
Duration : 1 h 36 min
Bit rate : 85 b/s
Count of elements : 1707
Stream size : 60.6 KiB (0%)
Title : ENG
Language : English
Default : Yes
Forced : No

Text #2
ID : 4
Format : UTF-8
Codec ID : S_TEXT/UTF8
Codec ID/Info : UTF-8 Plain Text
Duration : 1 h 39 min
Bit rate : 89 b/s
Count of elements : 1842
Stream size : 65.1 KiB (0%)
Title : ENG SDH
Language : English
Default : No
Forced : No

[collapse]
Download Link(s)

Download

[RE-UP] Direct download files get automatically deleted after a month or so. Posted on : 03/24/2018

[collapse]
Magnet Link

Magnet

Source : The.Death.of.Stalin.2017.1080p.BluRay.X264-AMIABLE-7.96 GB

[collapse]

You may also like...

error: nah :p~