The Departed (2006)

R | 2h 31min | Crime, Drama, Thriller | 6 October 2006 (USA)

An undercover cop and a mole in the police attempt to identify each other while infiltrating an Irish gang in South Boston.

Watch trailer

Media information

General
Format : Matroska
Format version : Version 4
File size : 659 MiB
Duration : 2 h 31 min
Overall bit rate : 609 kb/s
Movie name : The.Departed.2006.720p.BluRay.2CH.x265.HEVC
Encoded date : UTC 2019-03-04 05:02:31
Writing application : mkvmerge v31.0.0 (‘Dolores In A Shoestand’) 32-bit
Writing library : libebml v1.3.6 + libmatroska v1.4.9

Video
ID : 1
Format : HEVC
Format/Info : High Efficiency Video Coding
Format profile : [email protected]@Main
Codec ID : V_MPEGH/ISO/HEVC
Duration : 2 h 31 min
Bit rate : 542 kb/s
Width : 1 280 pixels
Height : 720 pixels
Display aspect ratio : 16:9
Frame rate mode : Constant
Frame rate : 23.976 (24000/1001) FPS
Color space : YUV
Chroma subsampling : 4:2:0
Bit depth : 8 bits
Bits/(Pixel*Frame) : 0.025
Stream size : 587 MiB (89%)
Default : Yes
Forced : No
Color range : Limited
Color primaries : BT.709
Transfer characteristics : BT.709
Matrix coefficients : BT.709

Audio
ID : 2
Format : AAC LC
Codec ID : A_AAC-2
Duration : 2 h 31 min
Bit rate : 64.3 kb/s
Channel(s) : 2 channels
Channel layout : L R
Sampling rate : 48.0 kHz
Frame rate : 46.875 FPS (1024 SPF)
Compression mode : Lossy
Delay relative to video : -21 ms
Stream size : 69.6 MiB (11%)
Title : Stereo
Language : English
Default : Yes
Forced : No

Text
ID : 3
Format : ASS
Codec ID : S_TEXT/ASS
Duration : 2 h 23 min
Bit rate : 109 b/s
Count of elements : 1905
Compression mode : Lossless
Stream size : 115 KiB (0%)
Language : English
Default : Yes
Forced : Yes

[collapse]
Download Link(s)

Download

Direct download files get automatically deleted after a month or so. Posted on : 03/04/2019

[collapse]
Magnet Link

Magnet

The.Departed.2006.1080p.BluRay.x264.DTS-FGT-9.14 GB

[collapse]

You may also like...

error: nah :p~