The Equalizer 2 (2018)

R | 2h 1min | Action , Crime , Thriller | 20 July 2018 (USA)

Robert McCall serves an unflinching justice for the exploited and oppressed, but how far will he go when that is someone he loves?

Watch trailer

Media information

General
Format : Matroska
Format version : Version 4
File size : 2.06 GiB
Duration : 2 h 0 min
Overall bit rate : 2 433 kb/s
Movie name : The.Equalizer.2.2018.1080p.10bit.BluRay.8CH.x265.HEVC
Encoded date : UTC 2018-11-13 23:07:12
Writing application : mkvmerge v28.2.0 (‘The Awakening’) 32-bit
Writing library : libebml v1.3.6 + libmatroska v1.4.9

Video
ID : 1
Format : HEVC
Format/Info : High Efficiency Video Coding
Format profile : Main [email protected]@Main
Codec ID : V_MPEGH/ISO/HEVC
Duration : 2 h 0 min
Bit rate : 2 138 kb/s
Width : 1 920 pixels
Height : 800 pixels
Display aspect ratio : 2.40:1
Frame rate mode : Constant
Frame rate : 23.976 (24000/1001) FPS
Color space : YUV
Chroma subsampling : 4:2:0
Bit depth : 10 bits
Bits/(Pixel*Frame) : 0.058
Stream size : 1.81 GiB (88%)
Default : Yes
Forced : No

Audio
ID : 2
Format : AAC LC SBR
Commercial name : HE-AAC
Format settings : Explicit
Codec ID : A_AAC-2
Duration : 2 h 0 min
Bit rate : 288 kb/s
Channel(s) : 7 channels
Channel(s)_Original : 8 channels
Channel layout : C L R Ls Rs Lb Rb LFE
Sampling rate : 48.0 kHz
Frame rate : 23.438 FPS (2048 SPF)
Compression mode : Lossy
Delay relative to video : 31 ms
Stream size : 254 MiB (12%)
Default : Yes
Forced : No

Text #1
ID : 3
Format : UTF-8
Codec ID : S_TEXT/UTF8
Codec ID/Info : UTF-8 Plain Text
Duration : 1 h 54 min
Bit rate : 40 b/s
Count of elements : 1294
Stream size : 33.7 KiB (0%)
Title : ENG
Language : English
Default : Yes
Forced : No

Text #2
ID : 4
Format : UTF-8
Codec ID : S_TEXT/UTF8
Codec ID/Info : UTF-8 Plain Text
Duration : 2 h 0 min
Bit rate : 50 b/s
Count of elements : 1714
Stream size : 44.4 KiB (0%)
Title : ENG SDH
Language : English
Default : No
Forced : No

[collapse]
Download Link(s)

Part01 Part02 Part03

Direct download files get automatically deleted after a month or so. Posted on : 11/14/2018

[collapse]
Magnet Link

Magnet

The.Equalizer.2.2018.1080p.BluRay.x264.DTS-FGT-10.99 GB

[collapse]

Media information

General
Format : Matroska
Format version : Version 4
File size : 1.01 GiB
Duration : 2 h 0 min
Overall bit rate : 1 194 kb/s
Movie name : The.Equalizer.2.2018.720p.10bit.BluRay.6CH.x265.HEVC
Encoded date : UTC 2018-11-12 21:48:26
Writing application : mkvmerge v28.2.0 (‘The Awakening’) 32-bit
Writing library : libebml v1.3.6 + libmatroska v1.4.9

Video
ID : 1
Format : HEVC
Format/Info : High Efficiency Video Coding
Format profile : Main [email protected]@Main
Codec ID : V_MPEGH/ISO/HEVC
Duration : 2 h 0 min
Bit rate : 968 kb/s
Width : 1 280 pixels
Height : 536 pixels
Display aspect ratio : 2.40:1
Frame rate mode : Constant
Frame rate : 23.976 (24000/1001) FPS
Color space : YUV
Chroma subsampling : 4:2:0
Bit depth : 10 bits
Bits/(Pixel*Frame) : 0.059
Stream size : 838 MiB (81%)
Default : Yes
Forced : No

Audio
ID : 2
Format : AAC LC SBR
Commercial name : HE-AAC
Format settings : Explicit
Codec ID : A_AAC-2
Duration : 2 h 0 min
Bit rate : 223 kb/s
Channel(s) : 6 channels
Channel layout : C L R Ls Rs LFE
Sampling rate : 48.0 kHz
Frame rate : 23.438 FPS (2048 SPF)
Compression mode : Lossy
Delay relative to video : 31 ms
Stream size : 193 MiB (19%)
Default : Yes
Forced : No

Text #1
ID : 3
Format : UTF-8
Codec ID : S_TEXT/UTF8
Codec ID/Info : UTF-8 Plain Text
Duration : 1 h 54 min
Bit rate : 40 b/s
Count of elements : 1294
Stream size : 33.7 KiB (0%)
Title : ENG
Language : English
Default : Yes
Forced : No

Text #2
ID : 4
Format : UTF-8
Codec ID : S_TEXT/UTF8
Codec ID/Info : UTF-8 Plain Text
Duration : 2 h 0 min
Bit rate : 50 b/s
Count of elements : 1714
Stream size : 44.4 KiB (0%)
Title : ENG SDH
Language : English
Default : No
Forced : No

[collapse]
Download Link(s)

Download

Direct download files get automatically deleted after a month or so. Posted on : 11/13/2018

[collapse]
Magnet Link

Magnet

The.Equalizer.2.2018.1080p.BluRay.x264.DTS-FGT-10.99 GB

[collapse]

Media information

General
Format : Matroska
Format version : Version 4
File size : 1.43 GiB
Duration : 2 h 1 min
Overall bit rate : 1 694 kb/s
Movie name : The.Equalizer.2.2018.1080p.WEB-DL.6CH.x265.HEVC
Encoded date : UTC 2018-10-31 20:06:57
Writing application : mkvmerge v28.2.0 (‘The Awakening’) 32-bit
Writing library : libebml v1.3.6 + libmatroska v1.4.9

Video
ID : 3
Format : HEVC
Format/Info : High Efficiency Video Coding
Format profile : [email protected]@Main
Codec ID : V_MPEGH/ISO/HEVC
Duration : 2 h 1 min
Bit rate : 1 500 kb/s
Width : 1 920 pixels
Height : 796 pixels
Display aspect ratio : 2.40:1
Frame rate mode : Constant
Frame rate : 23.976 (24000/1001) FPS
Color space : YUV
Chroma subsampling : 4:2:0
Bit depth : 8 bits
Bits/(Pixel*Frame) : 0.041
Stream size : 1.27 GiB (89%)
Default : Yes
Forced : No
Color range : Limited
Color primaries : BT.709
Transfer characteristics : BT.709
Matrix coefficients : BT.709

Audio
ID : 1
Format : AAC LC SBR
Commercial name : HE-AAC
Format settings : Explicit
Codec ID : A_AAC-2
Duration : 2 h 0 min
Bit rate : 192 kb/s
Channel(s) : 6 channels
Channel layout : C L R Ls Rs LFE
Sampling rate : 48.0 kHz
Frame rate : 23.438 FPS (2048 SPF)
Compression mode : Lossy
Delay relative to video : -47 ms
Stream size : 166 MiB (11%)
Default : Yes
Forced : No

Text
ID : 2
Format : UTF-8
Codec ID : S_TEXT/UTF8
Codec ID/Info : UTF-8 Plain Text
Duration : 1 h 54 min
Bit rate : 37 b/s
Count of elements : 1033
Stream size : 31.4 KiB (0%)
Language : English
Default : Yes
Forced : No

[collapse]
Download Link(s)

Part01 Part02

Direct download files get automatically deleted after a month or so. Posted on : 11/01/2018

[collapse]
Magnet Link

Magnet

The.Equalizer.2.2018.1080p.WEB-DL.DD5.1.H264-FGT-4.15 GB

[collapse]

Media information

General
Format : Matroska
Format version : Version 4
File size : 1 000 MiB
Duration : 2 h 1 min
Overall bit rate : 1 154 kb/s
Movie name : The.Equalizer.2.2018.720p.WEB-DL.2CH.x264.AVC
Encoded date : UTC 2018-10-30 16:37:16
Writing application : mkvmerge v28.2.0 (‘The Awakening’) 32-bit
Writing library : libebml v1.3.6 + libmatroska v1.4.9

Video
ID : 4
Format : AVC
Format/Info : Advanced Video Codec
Format profile : [email protected]
Format settings : CABAC / 5 Ref Frames
Format settings, CABAC : Yes
Format settings, RefFrames : 5 frames
Codec ID : V_MPEG4/ISO/AVC
Duration : 2 h 1 min
Bit rate : 1 089 kb/s
Width : 1 280 pixels
Height : 530 pixels
Display aspect ratio : 2.40:1
Frame rate mode : Constant
Frame rate : 24.000 FPS
Color space : YUV
Chroma subsampling : 4:2:0
Bit depth : 8 bits
Scan type : Progressive
Bits/(Pixel*Frame) : 0.067
Stream size : 943 MiB (94%)
Default : Yes
Forced : No
Color range : Limited
Color primaries : BT.709
Transfer characteristics : BT.709
Matrix coefficients : BT.709

Audio
ID : 1
Format : AAC LC SBR
Commercial name : HE-AAC
Format settings : Explicit
Codec ID : A_AAC-2
Duration : 2 h 0 min
Bit rate : 64.0 kb/s
Channel(s) : 2 channels
Channel layout : L R
Sampling rate : 48.0 kHz
Frame rate : 23.438 FPS (2048 SPF)
Compression mode : Lossy
Delay relative to video : 31 ms
Stream size : 55.4 MiB (6%)
Language : English
Default : Yes
Forced : No

Text #1
ID : 2
Format : UTF-8
Codec ID : S_TEXT/UTF8
Codec ID/Info : UTF-8 Plain Text
Duration : 1 h 52 min
Bit rate : 38 b/s
Count of elements : 1033
Stream size : 31.4 KiB (0%)
Language : English
Default : Yes
Forced : No

Text #2
ID : 3
Format : UTF-8
Codec ID : S_TEXT/UTF8
Codec ID/Info : UTF-8 Plain Text
Duration : 41 min 15 s
Bit rate : 0 b/s
Count of elements : 11
Stream size : 192 Bytes (0%)
Title : Forced
Language : English
Default : No
Forced : Yes

[collapse]
Download Link(s)

Download

Direct download files get automatically deleted after a month or so. Posted on : 10/30/2018

[collapse]
Magnet Link

Magnet

The.Equalizer.2.2018.1080p.WEB-DL.DD5.1.H264-FGT-4.15 GB

[collapse]

You may also like...

error: nah :p~