The Equalizer (2014)

R | 2h 12min | Action, Crime, Thriller | 26 September 2014 (USA)

A man believes he has put his mysterious past behind him and has dedicated himself to beginning a new, quiet life. But when he meets a young girl under the control of ultra-violent Russian gangsters, he can’t stand idly by – he has to help her.

Watch trailer

Details

General
Format : Matroska
Format version : Version 4 / Version 2
File size : 1.76 GiB
Duration : 2 h 12 min
Overall bit rate : 1 913 kb/s
Movie name : The.Equalizer.2014.1080p.10bit.BrRip.8CH.x265.HEVC
Encoded date : UTC 2018-07-19 20:29:44
Writing application : mkvmerge v25.0.0 (‘Prog Noir’) 32-bit
Writing library : libebml v1.3.6 + libmatroska v1.4.9

Video
ID : 1
Format : HEVC
Format/Info : High Efficiency Video Coding
Format profile : Main [email protected]@Main
Codec ID : V_MPEGH/ISO/HEVC
Duration : 2 h 12 min
Bit rate : 1 612 kb/s
Width : 1 920 pixels
Height : 800 pixels
Display aspect ratio : 2.40:1
Frame rate mode : Constant
Frame rate : 23.976 (24000/1001) FPS
Color space : YUV
Chroma subsampling : 4:2:0
Bit depth : 10 bits
Bits/(Pixel*Frame) : 0.044
Stream size : 1.49 GiB (84%)
Default : Yes
Forced : No

Audio
ID : 2
Format : AAC
Format/Info : Advanced Audio Codec
Format profile : HE-AAC / LC
Format settings : Explicit
Codec ID : A_AAC-2
Duration : 2 h 12 min
Bit rate : 298 kb/s
Channel(s) : 7 channels
Channel(s)_Original : 8 channels
Channel positions : Front: L C R, Side: L R, Back: L R, LFE
Sampling rate : 48.0 kHz / 24.0 kHz
Frame rate : 23.438 FPS (1024 SPF)
Compression mode : Lossy
Delay relative to video : 31 ms
Stream size : 282 MiB (16%)
Language : English
Default : Yes
Forced : No

Text
ID : 3
Format : UTF-8
Codec ID : S_TEXT/UTF8
Codec ID/Info : UTF-8 Plain Text
Duration : 2 h 2 min
Bit rate : 39 b/s
Count of elements : 1073
Stream size : 35.3 KiB (0%)
Language : English
Default : Yes
Forced : No

[collapse]
Download

Part01 Part02

Direct download files get automatically deleted after a month or so. Posted on : 07/20/2018

[collapse]
Magnet Link

Magnet

Source: The.Equalizer.2014.2160p.BluRay.x265.10bit.SDR.DTS-HD.MA.TrueHD.7.1.Atmos-SWTYBLZ-35.85 GB

[collapse]

Details

General
Format : Matroska
Format version : Version 4 / Version 2
File size : 1 002 MiB
Duration : 2 h 12 min
Overall bit rate : 1 061 kb/s
Movie name : The.Equalizer.2014.720p.10bit.BrRip.6CH.x265.HEVC
Encoded date : UTC 2018-07-20 07:55:04
Writing application : mkvmerge v25.0.0 (‘Prog Noir’) 32-bit
Writing library : libebml v1.3.6 + libmatroska v1.4.9

Video
ID : 1
Format : HEVC
Format/Info : High Efficiency Video Coding
Format profile : Main [email protected]@Main
Codec ID : V_MPEGH/ISO/HEVC
Duration : 2 h 12 min
Bit rate : 836 kb/s
Width : 1 280 pixels
Height : 536 pixels
Display aspect ratio : 2.40:1
Frame rate mode : Constant
Frame rate : 23.976 (24000/1001) FPS
Color space : YUV
Chroma subsampling : 4:2:0
Bit depth : 10 bits
Bits/(Pixel*Frame) : 0.051
Stream size : 790 MiB (79%)
Default : Yes
Forced : No

Audio
ID : 2
Format : AAC
Format/Info : Advanced Audio Codec
Format profile : HE-AAC / LC
Format settings : Explicit
Codec ID : A_AAC-2
Duration : 2 h 12 min
Bit rate : 223 kb/s
Channel(s) : 6 channels
Channel positions : Front: L C R, Side: L R, LFE
Sampling rate : 48.0 kHz / 24.0 kHz
Frame rate : 23.438 FPS (1024 SPF)
Compression mode : Lossy
Delay relative to video : 31 ms
Stream size : 210 MiB (21%)
Language : English
Default : Yes
Forced : No

Text
ID : 3
Format : UTF-8
Codec ID : S_TEXT/UTF8
Codec ID/Info : UTF-8 Plain Text
Duration : 2 h 2 min
Bit rate : 39 b/s
Count of elements : 1073
Stream size : 35.3 KiB (0%)
Language : English
Default : Yes
Forced : No

[collapse]
Download

Download

Direct download files get automatically deleted after a month or so. Posted on : 07/20/2018

[collapse]
Magnet Link

Magnet

Source: The.Equalizer.2014.2160p.BluRay.x265.10bit.SDR.DTS-HD.MA.TrueHD.7.1.Atmos-SWTYBLZ-35.85 GB

[collapse]

Details

General
Format : Matroska
Format version : Version 4 / Version 2
File size : 801 MiB
Duration : 2 h 12 min
Overall bit rate : 848 kb/s
Movie name : The.Equalizer.2014.720p.BluRay.2CH.x265.HEVC
Encoded date : UTC 2018-07-15 12:58:34
Writing application : mkvmerge v25.0.0 (‘Prog Noir’) 32-bit
Writing library : libebml v1.3.6 + libmatroska v1.4.9

Video
ID : 3
Format : HEVC
Format/Info : High Efficiency Video Coding
Format profile : [email protected]@Main
Codec ID : V_MPEGH/ISO/HEVC
Duration : 2 h 12 min
Bit rate : 782 kb/s
Width : 1 280 pixels
Height : 536 pixels
Display aspect ratio : 2.40:1
Frame rate mode : Constant
Frame rate : 23.976 (24000/1001) FPS
Color space : YUV
Chroma subsampling : 4:2:0
Bit depth : 8 bits
Bits/(Pixel*Frame) : 0.048
Stream size : 738 MiB (92%)
Default : Yes
Forced : No
Color range : Limited
Color primaries : BT.709
Transfer characteristics : BT.709
Matrix coefficients : BT.709

Audio
ID : 2
Format : AAC
Format/Info : Advanced Audio Codec
Format profile : HE-AAC / LC
Format settings : Explicit
Codec ID : A_AAC-2
Duration : 2 h 12 min
Bit rate : 64.0 kb/s
Channel(s) : 2 channels
Channel positions : Front: L R
Sampling rate : 48.0 kHz / 24.0 kHz
Frame rate : 23.438 FPS (1024 SPF)
Compression mode : Lossy
Delay relative to video : -4 ms
Stream size : 60.4 MiB (8%)
Default : Yes
Forced : No

Text
ID : 1
Format : UTF-8
Codec ID : S_TEXT/UTF8
Codec ID/Info : UTF-8 Plain Text
Duration : 2 h 11 min
Bit rate : 51 b/s
Count of elements : 1549
Stream size : 50.1 KiB (0%)
Default : Yes
Forced : No

[collapse]
Download

Download

[RE-UP] Direct download files get automatically deleted after a month or so. Posted on : 07/15/2018

[collapse]
Magnet Link

Magnet

Source: The.Equalizer.2014.1080p.BluRay.x264-SPARKS-9.91 GB

[collapse]

You may also like...

error: nah :p~