The Exorcist (1973)

R | 2h 2min | Horror | 26 December 1973 (USA)

When a girl is possessed by a mysterious entity, her mother seeks the help of two priests to save her daughter.

Watch trailer

Media Information

General
Format : Matroska
Format version : Version 4
File size : 2.06 GiB
Duration : 2 h 12 min
Overall bit rate : 2 229 kb/s
Movie name : The.Exorcist.1973.BluRay.Extended.Directors.Cut.1080p.10bit.BluRay.6CH.x265.HEVC

Video
ID : 1
Format : HEVC
Format/Info : High Efficiency Video Coding
Format profile : Main [email protected]@Main
Codec ID : V_MPEGH/ISO/HEVC
Duration : 2 h 12 min
Bit rate : 1 900 kb/s
Width : 1 920 pixels
Height : 1 080 pixels
Display aspect ratio : 16:9
Frame rate mode : Constant
Frame rate : 23.976 (24000/1001) FPS
Color space : YUV
Chroma subsampling : 4:2:0
Bit depth : 10 bits
Bits/(Pixel*Frame) : 0.038
Stream size : 1.76 GiB (85%)
Default : Yes
Forced : No
Color range : Limited
Color primaries : BT.709
Transfer characteristics : BT.709
Matrix coefficients : BT.709

Audio
ID : 2
Format : AAC LC
Codec ID : A_AAC-2
Duration : 2 h 12 min
Bit rate : 326 kb/s
Channel(s) : 6 channels
Channel layout : C L R Ls Rs LFE
Sampling rate : 48.0 kHz
Frame rate : 46.875 FPS (1024 SPF)
Compression mode : Lossy
Delay relative to video : -1 ms
Stream size : 309 MiB (15%)
Language : English
Default : Yes
Forced : No

Text
ID : 3
Format : UTF-8
Codec ID : S_TEXT/UTF8
Codec ID/Info : UTF-8 Plain Text
Duration : 1 h 55 min
Bit rate : 52 b/s
Count of elements : 1311
Stream size : 44.5 KiB (0%)
Language : English
Default : Yes
Forced : No

[collapse]
Download

Part01 Part02

Direct download files get automatically deleted after a month or so. Posted on : 08/22/2020

[collapse]
Magnet Link

Magnet

The.Exorcist.1973.BluRay.Extended.Directors.Cut.1080p.5.1.x265.HEVC–2.83 GB

[collapse]

Media Information

General
Format : Matroska
Format version : Version 4
File size : 1.07 GiB
Duration : 2 h 12 min
Overall bit rate : 1 162 kb/s
Movie name : The.Exorcist.1973.BluRay.Extended.Directors.Cut.720p.10bit.BluRay.6CH.x265.HEVC

Video
ID : 1
Format : HEVC
Format/Info : High Efficiency Video Coding
Format profile : Main [email protected]@Main
Codec ID : V_MPEGH/ISO/HEVC
Duration : 2 h 12 min
Bit rate : 900 kb/s
Width : 1 280 pixels
Height : 720 pixels
Display aspect ratio : 16:9
Frame rate mode : Constant
Frame rate : 23.976 (24000/1001) FPS
Color space : YUV
Chroma subsampling : 4:2:0
Bit depth : 10 bits
Bits/(Pixel*Frame) : 0.041
Stream size : 852 MiB (78%)
Default : Yes
Forced : No
Color range : Limited
Color primaries : BT.709
Transfer characteristics : BT.709
Matrix coefficients : BT.709

Audio
ID : 2
Format : AAC LC
Codec ID : A_AAC-2
Duration : 2 h 12 min
Bit rate : 259 kb/s
Channel(s) : 6 channels
Channel layout : C L R Ls Rs LFE
Sampling rate : 48.0 kHz
Frame rate : 46.875 FPS (1024 SPF)
Compression mode : Lossy
Delay relative to video : -1 ms
Stream size : 245 MiB (22%)
Language : English
Default : Yes
Forced : No

Text
ID : 3
Format : UTF-8
Codec ID : S_TEXT/UTF8
Codec ID/Info : UTF-8 Plain Text
Duration : 1 h 55 min
Bit rate : 52 b/s
Count of elements : 1311
Stream size : 44.5 KiB (0%)
Language : English
Default : Yes
Forced : No

[collapse]
Download

Download

Direct download files get automatically deleted after a month or so. Posted on : 08/22/2020

[collapse]
Magnet Link

Magnet

The.Exorcist.1973.BluRay.Extended.Directors.Cut.1080p.5.1.x265.HEVC–2.83 GB

[collapse]

You may also like...

error: nah :p~