The Favourite (2018)

R | 1h 59min | Biography, Comedy, Drama | 21 December 2018 (USA)

In early 18th century England, a frail Queen Anne occupies the throne and her close friend, Lady Sarah, governs the country in her stead. When a new servant, Abigail, arrives, her charm endears her to Sarah.

Watch trailer

Media information

General
Format : Matroska
Format version : Version 4
File size : 952 MiB
Duration : 1 h 59 min
Overall bit rate : 1 113 kb/s
Movie name : The.Favourite.2019.720p.WEB-DL.2CH.x264.AVC
Encoded date : UTC 2019-02-12 09:52:42
Writing application : mkvmerge v31.0.0 (‘Dolores In A Shoestand’) 32-bit
Writing library : libebml v1.3.6 + libmatroska v1.4.9

Video
ID : 2
Format : AVC
Format/Info : Advanced Video Codec
Format profile : [email protected]
Format settings : CABAC / 5 Ref Frames
Format settings, CABAC : Yes
Format settings, RefFrames : 5 frames
Codec ID : V_MPEG4/ISO/AVC
Duration : 1 h 59 min
Bit rate : 1 047 kb/s
Width : 1 280 pixels
Height : 692 pixels
Display aspect ratio : 1.85:1
Frame rate mode : Constant
Frame rate : 23.976 (24000/1001) FPS
Color space : YUV
Chroma subsampling : 4:2:0
Bit depth : 8 bits
Scan type : Progressive
Bits/(Pixel*Frame) : 0.049
Stream size : 895 MiB (94%)
Default : Yes
Forced : No

Audio
ID : 3
Format : AAC LC SBR
Commercial name : HE-AAC
Format settings : Explicit
Codec ID : A_AAC-2
Duration : 1 h 59 min
Bit rate : 64.0 kb/s
Channel(s) : 2 channels
Channel layout : L R
Sampling rate : 48.0 kHz
Frame rate : 23.438 FPS (2048 SPF)
Compression mode : Lossy
Delay relative to video : 1 ms
Stream size : 54.7 MiB (6%)
Language : English
Default : Yes
Forced : No

Text
ID : 1
Format : UTF-8
Codec ID : S_TEXT/UTF8
Codec ID/Info : UTF-8 Plain Text
Duration : 1 h 55 min
Bit rate : 52 b/s
Count of elements : 1423
Stream size : 44.4 KiB (0%)
Language : English
Default : Yes
Forced : No

[collapse]
Download Link(s)

Download

Direct download files get automatically deleted after a month or so. Posted on : 02/12/2019

[collapse]
Magnet Link

Magnet

The.Favourite.2018.1080p.WEB-DL.DD5.1.H264-FGT-4.69 GB

[collapse]

You may also like...

error: nah :p~