The Female Brain (2017)

1h 38min | Comedy | 9 February 2018 (USA)

What makes a woman swipe right for Mr. Wrong? Sofía Vergara and Whitney Cummings star in this fresh, witty look at the science behind our romantic missteps.

Watch trailer

Media information

General
Format : Matroska
Format version : Version 4 / Version 2
File size : 599 MiB
Duration : 1 h 39 min
Overall bit rate : 844 kb/s
Movie name : The.Female.Brain.2017.720p.WEB-DL.2CH.x265.HEVC
Encoded date : UTC 2018-02-18 11:12:24
Writing application : mkvmerge v20.0.0 (‘I Am The Sun’) 32-bit
Writing library : libebml v1.3.5 + libmatroska v1.4.8

Video
ID : 1
Format : HEVC
Format/Info : High Efficiency Video Coding
Format profile : [email protected]@Main
Codec ID : V_MPEGH/ISO/HEVC
Duration : 1 h 39 min
Bit rate : 780 kb/s
Width : 1 280 pixels
Height : 528 pixels
Display aspect ratio : 2.40:1
Frame rate mode : Constant
Frame rate : 23.976 (24000/1001) FPS
Color space : YUV
Chroma subsampling : 4:2:0
Bit depth : 8 bits
Bits/(Pixel*Frame) : 0.048
Stream size : 553 MiB (92%)
Default : Yes
Forced : No

Audio
ID : 2
Format : AAC
Format/Info : Advanced Audio Codec
Format profile : HE-AAC / LC
Format settings : Explicit
Codec ID : A_AAC-2
Duration : 1 h 39 min
Bit rate : 62.0 kb/s
Channel(s) : 2 channels
Channel positions : Front: L R
Sampling rate : 48.0 kHz / 24.0 kHz
Frame rate : 23.438 FPS (1024 SPF)
Compression mode : Lossy
Delay relative to video : 23 ms
Stream size : 44.0 MiB (7%)
Default : Yes
Forced : No

Text
ID : 3
Format : UTF-8
Codec ID : S_TEXT/UTF8
Codec ID/Info : UTF-8 Plain Text
Duration : 1 h 38 min
Bit rate : 100 b/s
Count of elements : 2307
Stream size : 72.7 KiB (0%)
Default : Yes
Forced : No

[collapse]
Download Link(s)

Download

[RE-UP] – Direct download files get automatically deleted after a month or so. Posted on : 06/02/2018

[collapse]
Magnet Link

Magnet

Source : The.Female.Brain.2017.1080p.WEB-DL.DD5.1.H264-FGT-3.42 GB

[collapse]

You may also like...

error: nah :p~