The Gangster, the Cop, the Devil (2019)

Not Rated | 1h 49min | Action, Crime, Drama | 7 June 2019 (USA)

A crime boss teams up with a cop to track down a serial killer.

Watch trailer

Media information

General
Format : Matroska
Format version : Version 4
File size : 906 MiB
Duration : 1 h 49 min
Overall bit rate : 1 153 kb/s
Movie name : The.Gangster.the.Cop.the.Devil.2019.KOREAN.720p.10bit.BluRay.6CH.x265.HEVC
Encoded date : UTC 2019-10-09 13:28:26
Writing application : mkvmerge v38.0.0 (‘The Silent Type’) 32-bit
Writing library : libebml v1.3.9 + libmatroska v1.5.2

Video
ID : 1
Format : HEVC
Format/Info : High Efficiency Video Coding
Format profile : Main [email protected]@Main
Codec ID : V_MPEGH/ISO/HEVC
Duration : 1 h 49 min
Bit rate : 944 kb/s
Width : 1 280 pixels
Height : 536 pixels
Display aspect ratio : 2.40:1
Frame rate mode : Constant
Frame rate : 24.000 FPS
Color space : YUV
Chroma subsampling : 4:2:0
Bit depth : 10 bits
Bits/(Pixel*Frame) : 0.057
Stream size : 742 MiB (82%)
Default : Yes
Forced : No

Audio
ID : 2
Format : AAC LC SBR
Commercial name : HE-AAC
Format settings : Explicit
Codec ID : A_AAC-2
Duration : 1 h 49 min
Bit rate : 206 kb/s
Channel(s) : 6 channels
Channel layout : C L R Ls Rs LFE
Sampling rate : 48.0 kHz
Frame rate : 23.438 FPS (2048 SPF)
Compression mode : Lossy
Delay relative to video : 23 ms
Stream size : 162 MiB (18%)
Language : Korean
Default : Yes
Forced : No

Text
ID : 3
Format : UTF-8
Codec ID : S_TEXT/UTF8
Codec ID/Info : UTF-8 Plain Text
Duration : 1 h 45 min
Bit rate : 52 b/s
Count of elements : 1325
Stream size : 40.4 KiB (0%)
Language : English
Default : Yes
Forced : No

[collapse]
Download Link(s)

Download

Direct download files get automatically deleted after a month or so. Posted on : 10/09/2019

[collapse]
Magnet Link

Magnet

The.Gangster.the.Cop.the.Devil.2019.KOREAN.1080p.BluRay.REMUX.AVC.DTS-HD.MA.5.1-FGT-16.77 GB

[collapse]

Media information

General
Format : Matroska
Format version : Version 4
File size : 955 MiB
Duration : 1 h 49 min
Overall bit rate : 1 215 kb/s
Movie name : The Gangster.the.Cop.the.Devil.2019.720p.WEB-DL.2CH.x264.AVC
Encoded date : UTC 2019-10-03 10:33:49
Writing application : mkvmerge v37.0.0 (‘Leave It’) 32-bit
Writing library : libebml v1.3.9 + libmatroska v1.5.2

Video
ID : 1
Format : AVC
Format/Info : Advanced Video Codec
Format profile : [email protected]
Format settings : CABAC / 4 Ref Frames
Format settings, CABAC : Yes
Format settings, Reference frames : 4 frames
Codec ID : V_MPEG4/ISO/AVC
Duration : 1 h 49 min
Bit rate : 1 100 kb/s
Width : 1 280 pixels
Height : 534 pixels
Display aspect ratio : 2.40:1
Frame rate mode : Constant
Frame rate : 23.976 (24000/1001) FPS
Color space : YUV
Chroma subsampling : 4:2:0
Bit depth : 8 bits
Scan type : Progressive
Bits/(Pixel*Frame) : 0.067
Stream size : 853 MiB (89%)
Default : Yes
Forced : No
Color range : Limited
Color primaries : BT.709
Transfer characteristics : BT.709
Matrix coefficients : BT.709

Audio
ID : 2
Format : AAC LC
Codec ID : A_AAC-2
Duration : 1 h 49 min
Bit rate : 128 kb/s
Channel(s) : 2 channels
Channel layout : L R
Sampling rate : 48.0 kHz
Frame rate : 46.875 FPS (1024 SPF)
Compression mode : Lossy
Delay relative to video : -21 ms
Stream size : 100 MiB (11%)
Language : Korean
Default : Yes
Forced : No

Text
ID : 3
Format : ASS
Codec ID : S_TEXT/ASS
Duration : 1 h 43 min
Bit rate : 91 b/s
Count of elements : 1322
Compression mode : Lossless
Stream size : 68.9 KiB (0%)
Language : English
Default : No
Forced : No

[collapse]
Download Link(s)

Download

Direct download files get automatically deleted after a month or so. Posted on : 10/03/2019

[collapse]
Magnet Link

Magnet

The.Gangster.The.Cop.The.Devil.2019.KOREAN.1080p.WEB-DL.DD5.1.H264-FGT-3.77 GB

[collapse]

You may also like...

error: nah :p~