The Girl with the Dragon Tattoo (2011)

R | 2h 38min | Crime, Drama, Mystery | 21 December 2011 (USA)

Journalist Mikael Blomkvist is aided in his search for a woman who has been missing for forty years by Lisbeth Salander, a young computer hacker.

Watch trailer

Media information

General
Format : Matroska
Format version : Version 4
File size : 575 MiB
Duration : 2 h 38 min
Overall bit rate : 508 kb/s
Movie name : The.Girl.With.The.Dragon.Tattoo.2011.720p.BluRay.6CH.x265.HEVC
Encoded date : UTC 2019-01-26 13:03:26
Writing application : mkvmerge v30.1.0 (‘Forever And More’) 32-bit
Writing library : libebml v1.3.6 + libmatroska v1.4.9

Video
ID : 1
Format : HEVC
Format/Info : High Efficiency Video Coding
Format profile : [email protected]@Main
Codec ID : V_MPEGH/ISO/HEVC
Duration : 2 h 38 min
Bit rate : 313 kb/s
Width : 1 280 pixels
Height : 536 pixels
Display aspect ratio : 2.40:1
Frame rate mode : Constant
Frame rate : 23.976 (24000/1001) FPS
Color space : YUV
Chroma subsampling : 4:2:0
Bit depth : 8 bits
Bits/(Pixel*Frame) : 0.019
Stream size : 354 MiB (62%)
Default : Yes
Forced : No
Color range : Limited
Color primaries : BT.709
Transfer characteristics : BT.709
Matrix coefficients : BT.709

Audio
ID : 2
Format : AAC LC
Codec ID : A_AAC-2
Duration : 2 h 38 min
Bit rate : 192 kb/s
Channel(s) : 6 channels
Channel layout : L R C Cb Rls Rb
Sampling rate : 48.0 kHz
Frame rate : 46.875 FPS (1024 SPF)
Compression mode : Lossy
Delay relative to video : -21 ms
Stream size : 217 MiB (38%)
Title : Surround
Language : English
Default : Yes
Forced : No

Text #1
ID : 3
Format : ASS
Codec ID : S_TEXT/ASS
Codec ID/Info : Advanced Sub Station Alpha
Duration : 2 h 31 min
Bit rate : 85 b/s
Count of elements : 1643
Compression mode : Lossless
Stream size : 94.6 KiB (0%)
Language : English
Default : Yes
Forced : Yes

Text #2
ID : 4
Format : ASS
Codec ID : S_TEXT/ASS
Codec ID/Info : Advanced Sub Station Alpha
Duration : 2 h 37 min
Bit rate : 94 b/s
Count of elements : 1980
Compression mode : Lossless
Stream size : 109 KiB (0%)
Language : English
Default : No
Forced : No

[collapse]
Download Link(s)

Download

Direct download files get automatically deleted after a month or so. Posted on : 01/26/2019

[collapse]
Magnet Link

Magnet

The.Girl.With.The.Dragon.Tattoo.2011.1080p.BluRay.x264-SPARKS-10.93 GB

[collapse]

You may also like...

error: nah :p~