The Godfather (1972)

R | 2h 55min | Crime, Drama | 24 March 1972 (USA)

The aging patriarch of an organized crime dynasty transfers control of his clandestine empire to his reluctant son.

Watch trailer

Media information

General
Format : Matroska
Format version : Version 4 / Version 2
File size : 1.51 GiB
Duration : 2 h 57 min
Overall bit rate : 1 220 kb/s
Movie name : The.Godfather.1972.720p.BluRay.2CH.x264.AVC
Encoded date : UTC 2018-02-03 15:58:27
Writing application : mkvmerge v20.0.0 (‘I Am The Sun’) 32-bit
Writing library : libebml v1.3.5 + libmatroska v1.4.8

Video
ID : 1
Format : AVC
Format/Info : Advanced Video Codec
Format profile : [email protected]
Format settings : CABAC / 8 Ref Frames
Format settings, CABAC : Yes
Format settings, RefFrames : 8 frames
Codec ID : V_MPEG4/ISO/AVC
Duration : 2 h 57 min
Bit rate : 1 119 kb/s
Width : 1 280 pixels
Height : 720 pixels
Display aspect ratio : 16:9
Frame rate mode : Constant
Frame rate : 23.976 (24000/1001) FPS
Color space : YUV
Chroma subsampling : 4:2:0
Bit depth : 8 bits
Scan type : Progressive
Bits/(Pixel*Frame) : 0.051
Stream size : 1.38 GiB (92%)
Writing library : x264 core 142 r2431 ac76440
Default : Yes
Forced : No

Audio
ID : 2
Format : AAC
Format/Info : Advanced Audio Codec
Format profile : HE-AAC / LC
Format settings : Explicit
Codec ID : A_AAC-2
Duration : 2 h 57 min
Bit rate : 99.7 kb/s
Channel(s) : 2 channels
Channel positions : Front: L R
Sampling rate : 48.0 kHz / 24.0 kHz
Frame rate : 23.438 FPS (1024 SPF)
Compression mode : Lossy
Delay relative to video : 31 ms
Stream size : 126 MiB (8%)
Language : English
Default : Yes
Forced : No

Text
ID : 3
Format : UTF-8
Codec ID : S_TEXT/UTF8
Codec ID/Info : UTF-8 Plain Text
Duration : 2 h 51 min
Bit rate : 42 b/s
Count of elements : 1321
Stream size : 53.6 KiB (0%)
Default : Yes
Forced : No

[collapse]
Download Link(s)

Part01 Part02

[RE-UP] -Direct download files get automatically deleted after a month or so. Posted on : 07/30/2018

[collapse]
Magnet Link

Magnet

Source : The.Godfather.Part.I.1972.UNCUT.1080p.BluRay.x264-iLLUSiON-10.99 GB

[collapse]

You may also like...

error: nah :p~