The Godfather: Part II (1974)

R | 3h 22min | Crime, Drama | 20 December 1974 (USA)

The early life and career of Vito Corleone in 1920s New York City is portrayed, while his son, Michael, expands and tightens his grip on the family crime syndicate.

Watch trailer

Media information

General
Format : Matroska
Format version : Version 4 / Version 2
File size : 1.75 GiB
Duration : 3 h 22 min
Overall bit rate : 1 242 kb/s
Movie name : The.Godfather.Part.II.1974.720p.BluRay.2CH.x264.AVC
Encoded date : UTC 2018-02-04 13:04:54
Writing application : mkvmerge v20.0.0 (‘I Am The Sun’) 32-bit
Writing library : libebml v1.3.5 + libmatroska v1.4.8

Video
ID : 1
Format : AVC
Format/Info : Advanced Video Codec
Format profile : [email protected]
Format settings : CABAC / 8 Ref Frames
Format settings, CABAC : Yes
Format settings, RefFrames : 8 frames
Codec ID : V_MPEG4/ISO/AVC
Duration : 3 h 22 min
Bit rate : 1 141 kb/s
Width : 1 280 pixels
Height : 720 pixels
Display aspect ratio : 16:9
Frame rate mode : Constant
Frame rate : 23.976 (24000/1001) FPS
Color space : YUV
Chroma subsampling : 4:2:0
Bit depth : 8 bits
Scan type : Progressive
Bits/(Pixel*Frame) : 0.052
Stream size : 1.61 GiB (92%)
Default : Yes
Forced : No

Audio
ID : 2
Format : AAC
Format/Info : Advanced Audio Codec
Format profile : HE-AAC / LC
Format settings : Explicit
Codec ID : A_AAC-2
Duration : 3 h 22 min
Bit rate : 99.7 kb/s
Channel(s) : 2 channels
Channel positions : Front: L R
Sampling rate : 48.0 kHz / 24.0 kHz
Frame rate : 23.438 FPS (1024 SPF)
Compression mode : Lossy
Delay relative to video : 31 ms
Stream size : 144 MiB (8%)
Language : English
Default : Yes
Forced : No

Text
ID : 3
Format : UTF-8
Codec ID : S_TEXT/UTF8
Codec ID/Info : UTF-8 Plain Text
Duration : 3 h 13 min
Bit rate : 42 b/s
Count of elements : 1502
Stream size : 60.6 KiB (0%)
Default : Yes
Forced : No

[collapse]
Download Link(s)

Part01 Part02

[RE-UP] -Direct download files get automatically deleted after a month or so. Posted on : 07/30/2018

[collapse]
Magnet Link

Magnet

Source : The.Godfather.Part.II.1974.1080p.BluRay.x264-ADHD-13.37 GB

[collapse]

You may also like...

error: nah :p~