The Good, the Bad and the Ugly (1966)

Il buono, il brutto, il cattivo (original title)|R | 2h 58min | Western | 29 December 1967 (USA)

A bounty hunting scam joins two men in an uneasy alliance against a third in a race to find a fortune in gold buried in a remote cemetery.

Watch trailer

Media information

General
Format : Matroska
Format version : Version 4
File size : 4.85 GiB
Duration : 2 h 58 min
Overall bit rate : 3 886 kb/s
Movie name : The.Good.the.Bad.and.the.Ugly.1966.EXTENDED.2160p.10bit.WEB-DL.6CH.x265.HEVC

Video
ID : 1
Format : HEVC
Format/Info : High Efficiency Video Coding
Format profile : Main [email protected]@Main
Codec ID : V_MPEGH/ISO/HEVC
Duration : 2 h 58 min
Bit rate : 3 501 kb/s
Width : 3 840 pixels
Height : 1 616 pixels
Display aspect ratio : 2.40:1
Frame rate mode : Constant
Frame rate : 23.976 (24000/1001) FPS
Color space : YUV
Chroma subsampling : 4:2:0
Bit depth : 10 bits
Bits/(Pixel*Frame) : 0.024
Stream size : 4.37 GiB (90%)
Default : Yes
Forced : No
Color range : Limited
Color primaries : BT.2020
Transfer characteristics : PQ

Audio
ID : 2
Format : AAC LC
Codec ID : A_AAC-2
Duration : 2 h 58 min
Bit rate : 384 kb/s
Channel(s) : 6 channels
Channel layout : C L R Ls Rs LFE
Sampling rate : 48.0 kHz
Frame rate : 46.875 FPS (1024 SPF)
Compression mode : Lossy
Delay relative to video : 443 ms
Stream size : 491 MiB (10%)
Language : English
Default : Yes
Forced : No

Text
ID : 3
Format : ASS
Codec ID : S_TEXT/ASS
Duration : 2 h 53 min
Bit rate : 49 b/s
Count of elements : 1223
Compression mode : Lossless
Stream size : 62.7 KiB (0%)
Language : English
Default : Yes
Forced : No

[collapse]
Download Link(s)

Part01 Part02 Part03

Direct download files get automatically deleted after a month or so. Posted on : 09/08/2020

[collapse]
Magnet Link

Magnet

The-Good-the-Bad-and-the-Ugly-1966-EXTENDED-4K-HDR-2160p-WEBDL-Ita-Eng-x265-13.4 GB

[collapse]

Media information

General
Format : Matroska
Format version : Version 4
File size : 4.73 GiB
Duration : 2 h 58 min
Overall bit rate : 3 787 kb/s
Movie name : The.Good.the.Bad.and.the.Ugly.1966.Extended.1080p.10bit.BluRay.6CH.x265.HEVC

Video
ID : 1
Format : HEVC
Format/Info : High Efficiency Video Coding
Format profile : Main [email protected]@Main
Codec ID : V_MPEGH/ISO/HEVC
Duration : 2 h 58 min
Bit rate : 3 501 kb/s
Width : 1 920 pixels
Height : 820 pixels
Display aspect ratio : 2.35:1
Frame rate mode : Constant
Frame rate : 23.976 (24000/1001) FPS
Color space : YUV
Chroma subsampling : 4:2:0
Bit depth : 10 bits
Bits/(Pixel*Frame) : 0.093
Stream size : 4.37 GiB (92%)
Default : Yes
Forced : No
Color range : Limited
Color primaries : BT.709
Transfer characteristics : BT.709
Matrix coefficients : BT.709

Audio
ID : 2
Format : AAC LC
Codec ID : A_AAC-2
Duration : 2 h 58 min
Bit rate : 257 kb/s
Channel(s) : 6 channels
Channel layout : C L R Ls Rs LFE
Sampling rate : 48.0 kHz
Frame rate : 46.875 FPS (1024 SPF)
Compression mode : Lossy
Delay relative to video : -1 ms
Stream size : 328 MiB (7%)
Language : English
Default : Yes
Forced : No

Text #1
ID : 3
Format : VobSub
Muxing mode : zlib
Codec ID : S_VOBSUB
Duration : 2 h 53 min
Bit rate : 5 289 b/s
Count of elements : 1225
Stream size : 6.57 MiB (0%)
Language : English
Default : Yes
Forced : Yes

Text #2
ID : 4
Format : VobSub
Muxing mode : zlib
Codec ID : S_VOBSUB
Duration : 2 h 45 min
Bit rate : 4 032 b/s
Count of elements : 1006
Stream size : 4.79 MiB (0%)
Language : Chinese
Default : No
Forced : No

Text #3
ID : 5
Format : VobSub
Muxing mode : zlib
Codec ID : S_VOBSUB
Duration : 2 h 50 min
Bit rate : 4 031 b/s
Count of elements : 907
Stream size : 4.93 MiB (0%)
Language : Danish
Default : No
Forced : No

Text #4
ID : 6
Format : VobSub
Muxing mode : zlib
Codec ID : S_VOBSUB
Duration : 2 h 50 min
Bit rate : 3 855 b/s
Count of elements : 893
Stream size : 4.71 MiB (0%)
Language : Dutch
Default : No
Forced : No

Text #5
ID : 7
Format : VobSub
Muxing mode : zlib
Codec ID : S_VOBSUB
Duration : 2 h 55 min
Bit rate : 3 730 b/s
Count of elements : 741
Stream size : 4.68 MiB (0%)
Language : Finnish
Default : No
Forced : No

Text #6
ID : 8
Format : VobSub
Muxing mode : zlib
Codec ID : S_VOBSUB
Duration : 2 h 52 min
Bit rate : 3 802 b/s
Count of elements : 902
Stream size : 4.70 MiB (0%)
Language : French
Default : No
Forced : No

Text #7
ID : 9
Format : VobSub
Muxing mode : zlib
Codec ID : S_VOBSUB
Duration : 2 h 52 min
Bit rate : 4 845 b/s
Count of elements : 1010
Stream size : 5.97 MiB (0%)
Language : German
Default : No
Forced : No

Text #8
ID : 10
Format : VobSub
Muxing mode : zlib
Codec ID : S_VOBSUB
Duration : 2 h 50 min
Bit rate : 9 b/s
Count of elements : 6
Stream size : 11.4 KiB (0%)
Title : Forced
Language : German
Default : No
Forced : No

Text #9
ID : 11
Format : VobSub
Muxing mode : zlib
Codec ID : S_VOBSUB
Duration : 2 h 50 min
Bit rate : 3 787 b/s
Count of elements : 905
Stream size : 4.63 MiB (0%)
Language : Norwegian Bokmal
Default : No
Forced : No

Text #10
ID : 12
Format : VobSub
Muxing mode : zlib
Codec ID : S_VOBSUB
Duration : 2 h 52 min
Bit rate : 4 335 b/s
Count of elements : 1168
Stream size : 5.34 MiB (0%)
Language : Portuguese
Default : No
Forced : No

Text #11
ID : 13
Format : VobSub
Muxing mode : zlib
Codec ID : S_VOBSUB
Duration : 2 h 52 min
Bit rate : 4 501 b/s
Count of elements : 1009
Stream size : 5.55 MiB (0%)
Language : Spanish
Default : No
Forced : No

Text #12
ID : 14
Format : VobSub
Muxing mode : zlib
Codec ID : S_VOBSUB
Duration : 2 h 52 min
Bit rate : 3 699 b/s
Count of elements : 909
Stream size : 4.57 MiB (0%)
Language : Swedish
Default : No
Forced : No

[collapse]
Download Link(s)

Part01 Part02 Part03

Direct download files get automatically deleted after a month or so. Posted on : 05/22/2020

[collapse]
Magnet Link

Magnet

The-Good-the-Bad-and-the-Ugly-1966-Extended-RM4K-1080p-BluRay-x265-HEVC-10bit-AAC-5-1-8.9 GB

[collapse]

Media information

General
Format : Matroska
Format version : Version 4
File size : 1.90 GiB
Duration : 2 h 58 min
Overall bit rate : 1 523 kb/s
Movie name : The.Good.the.Bad.and.the.Ugly.1966.Extended.720p.10bit.BluRay.6CH.x265.HEVC

Video
ID : 1
Format : HEVC
Format/Info : High Efficiency Video Coding
Format profile : Main [email protected]@Main
Codec ID : V_MPEGH/ISO/HEVC
Duration : 2 h 58 min
Bit rate : 1 301 kb/s
Width : 1 280 pixels
Height : 548 pixels
Display aspect ratio : 2.35:1
Frame rate mode : Constant
Frame rate : 23.976 (24000/1001) FPS
Color space : YUV
Chroma subsampling : 4:2:0
Bit depth : 10 bits
Bits/(Pixel*Frame) : 0.077
Stream size : 1.62 GiB (85%)
Default : Yes
Forced : No
Color range : Limited
Color primaries : BT.709
Transfer characteristics : BT.709
Matrix coefficients : BT.709

Audio
ID : 2
Format : AAC LC
Codec ID : A_AAC-2
Duration : 2 h 58 min
Bit rate : 192 kb/s
Channel(s) : 6 channels
Channel layout : C L R Ls Rs LFE
Sampling rate : 48.0 kHz
Frame rate : 46.875 FPS (1024 SPF)
Compression mode : Lossy
Delay relative to video : -1 ms
Stream size : 246 MiB (13%)
Language : English
Default : Yes
Forced : No

Text #1
ID : 3
Format : VobSub
Muxing mode : zlib
Codec ID : S_VOBSUB
Duration : 2 h 53 min
Bit rate : 5 289 b/s
Count of elements : 1225
Stream size : 6.57 MiB (0%)
Language : English
Default : Yes
Forced : Yes

Text #2
ID : 4
Format : VobSub
Muxing mode : zlib
Codec ID : S_VOBSUB
Duration : 2 h 45 min
Bit rate : 4 032 b/s
Count of elements : 1006
Stream size : 4.79 MiB (0%)
Language : Chinese
Default : No
Forced : No

Text #3
ID : 5
Format : VobSub
Muxing mode : zlib
Codec ID : S_VOBSUB
Duration : 2 h 50 min
Bit rate : 4 031 b/s
Count of elements : 907
Stream size : 4.93 MiB (0%)
Language : Danish
Default : No
Forced : No

Text #4
ID : 6
Format : VobSub
Muxing mode : zlib
Codec ID : S_VOBSUB
Duration : 2 h 50 min
Bit rate : 3 855 b/s
Count of elements : 893
Stream size : 4.71 MiB (0%)
Language : Dutch
Default : No
Forced : No

Text #5
ID : 7
Format : VobSub
Muxing mode : zlib
Codec ID : S_VOBSUB
Duration : 2 h 55 min
Bit rate : 3 730 b/s
Count of elements : 741
Stream size : 4.68 MiB (0%)
Language : Finnish
Default : No
Forced : No

Text #6
ID : 8
Format : VobSub
Muxing mode : zlib
Codec ID : S_VOBSUB
Duration : 2 h 52 min
Bit rate : 3 802 b/s
Count of elements : 902
Stream size : 4.70 MiB (0%)
Language : French
Default : No
Forced : No

Text #7
ID : 9
Format : VobSub
Muxing mode : zlib
Codec ID : S_VOBSUB
Duration : 2 h 52 min
Bit rate : 4 845 b/s
Count of elements : 1010
Stream size : 5.97 MiB (0%)
Language : German
Default : No
Forced : No

Text #8
ID : 10
Format : VobSub
Muxing mode : zlib
Codec ID : S_VOBSUB
Duration : 2 h 50 min
Bit rate : 9 b/s
Count of elements : 6
Stream size : 11.4 KiB (0%)
Title : Forced
Language : German
Default : No
Forced : No

Text #9
ID : 11
Format : VobSub
Muxing mode : zlib
Codec ID : S_VOBSUB
Duration : 2 h 50 min
Bit rate : 3 787 b/s
Count of elements : 905
Stream size : 4.63 MiB (0%)
Language : Norwegian Bokmal
Default : No
Forced : No

Text #10
ID : 12
Format : VobSub
Muxing mode : zlib
Codec ID : S_VOBSUB
Duration : 2 h 52 min
Bit rate : 4 335 b/s
Count of elements : 1168
Stream size : 5.34 MiB (0%)
Language : Portuguese
Default : No
Forced : No

Text #11
ID : 13
Format : VobSub
Muxing mode : zlib
Codec ID : S_VOBSUB
Duration : 2 h 52 min
Bit rate : 4 501 b/s
Count of elements : 1009
Stream size : 5.55 MiB (0%)
Language : Spanish
Default : No
Forced : No

Text #12
ID : 14
Format : VobSub
Muxing mode : zlib
Codec ID : S_VOBSUB
Duration : 2 h 52 min
Bit rate : 3 699 b/s
Count of elements : 909
Stream size : 4.57 MiB (0%)
Language : Swedish
Default : No
Forced : No

[collapse]
Download Link(s)

Download

Direct download files get automatically deleted after a month or so. Posted on : 05/22/2020

[collapse]
Magnet Link

Magnet

The-Good-the-Bad-and-the-Ugly-1966-Extended-RM4K-1080p-BluRay-x265-HEVC-10bit-AAC-5-1-8.9 GB

[collapse]

You may also like...

error: nah :p~