The Goonies (1985)

PG | 1h 54min | Adventure, Comedy, Family | 7 June 1985 (USA)

In order to save their home from foreclosure, a group of misfits set out to find a pirate’s ancient valuable treasure.

Watch trailer

Details

General
Format : Matroska
Format version : Version 4 / Version 2
File size : 760 MiB
Duration : 1 h 53 min
Overall bit rate : 933 kb/s
Movie name : The Goonies.1985.25th.Anniv.720p.BluRay.2CH.x265.HEVC
Encoded date : UTC 2018-08-02 14:44:38
Writing application : mkvmerge v25.0.0 (‘Prog Noir’) 32-bit
Writing library : libebml v1.3.6 + libmatroska v1.4.9

Video
ID : 1
Format : HEVC
Format/Info : High Efficiency Video Coding
Format profile : [email protected]@Main
Codec ID : V_MPEGH/ISO/HEVC
Duration : 1 h 53 min
Bit rate : 770 kb/s
Width : 1 280 pixels
Height : 720 pixels
Display aspect ratio : 2.40:1
Original display aspect ratio : 2.40:1
Frame rate mode : Constant
Frame rate : 23.976 (24000/1001) FPS
Color space : YUV
Chroma subsampling : 4:2:0
Bit depth : 8 bits
Bits/(Pixel*Frame) : 0.035
Stream size : 628 MiB (83%)
Default : Yes
Forced : No
Color range : Limited
Color primaries : BT.709
Transfer characteristics : BT.709
Matrix coefficients : BT.709

Audio
ID : 2
Format : AAC
Format/Info : Advanced Audio Codec
Format profile : LC
Codec ID : A_AAC-2
Duration : 1 h 53 min
Bit rate : 160 kb/s
Channel(s) : 2 channels
Channel positions : Front: L R
Sampling rate : 48.0 kHz
Frame rate : 46.875 FPS (1024 SPF)
Compression mode : Lossy
Delay relative to video : -1 ms
Stream size : 131 MiB (17%)
Title : Stereo
Language : English
Default : Yes
Forced : No

Text
ID : 3
Format : UTF-8
Codec ID : S_TEXT/UTF8
Codec ID/Info : UTF-8 Plain Text
Duration : 1 h 48 min
Bit rate : 65 b/s
Count of elements : 1680
Stream size : 52.2 KiB (0%)
Language : English
Default : Yes
Forced : No

[collapse]
Download

Download

[RE-UP] -Direct download files get automatically deleted after a month or so. Posted on : 08/02/2018

[collapse]
Magnet Link

Magnet

Source: The Goonies 1985 25th Anniv (1080p x265 10bit Tigole)-3.26 GB

[collapse]

You may also like...

error: nah :p~